&title=archive::zip
&artist=kamome sano
&first=0.64
&des=GBLKH
&lv_5=14+
&inote_5=(185){4},4,3,2,
{8}1>4[8:4],,,,,5,6,7h[8:9],,,,,,,3,,4-8[8:2],,,,,7,6,5q1[8:2],,,,,2q6[8:2],,,,
8<4[8:4],,,,,3,2,1h[8:9],,,,,,,6,,5q1[8:2],,,,,2,3,4,
{16}8,7,6,5,8,1,2,3,{8}5-1[8:1],6,57,,
8bx-2-4v1[8:4]/7bx,7bhx[8:4]/8bx,,,,,5pp8[8:4],,4h[8:6],,,,,,,,
1bx-7-5v8[8:4]/2bx,2bhx[8:4]/1bx,,,,,4qq1[8:4],,5h[8:6],,,,,,,,
7-4[8:1],7,1,,2-5[8:1],2,8,,6-1[8:1],6,4,,3-8[8:1],3,5,,
6,6,5,5,46,46,37,37,{16}2,8,2,8,1,7,1,7,
{24}1-5[8:1],2,3,4,5,6,{4}1b>7[8:6],1h[8:6],,,,
{8}61,2,36,4h[8:2],6,,26,3h[8:2],6,,16,2pp4[8:2],6,,6,,
{8}38,7,63,5h[8:2],3,,73,6h[8:2],3,,83,7,36,5,36,7,
82,,82,3h[8:2],8,,83,4h[8:2],8,,85,4>1[8:2],8,,8,7,
6<1[8:2],3,6,2,,3,47,5b-1[8:1]/6b-1[8:1],,,,4b-8[8:1]/3b-8[8:1],,,Cf,,
7hx[8:1]/2,3,7h[8:1]/4,5h[8:1],7h[8:1],,7h[8:1]/3,4h[8:1],6h[8:1],,6h[8:1]/2,3>8[8:1],5h[8:1],,4h[8:1],,
2h[8:1]/4,5,2h[8:1]/6,7h[8:1],2h[8:1],,2h[8:1]/5,6h[8:1],
3h[8:1],,3h[8:1]/7,6<1[8:1],4h[8:1],,4h[8:1],,
3h[8:1],,3h[8:1]/4h[8:1],,3h[8:1]/5h[8:1],,3h[8:1]/6h[8:1],,3h[8:1]/6h[8:1],,4h[8:1]/6h[8:1],,5h[8:1]/6h[8:1],,4h[8:1]/7h[8:1],,
83,8,1,1,2,2,3,4,56,56,7,34,34,2,1b>4[8:1]/8b,,
7/1,,{32}1<3[8:2],2,3,4h[32:5],{8},1,,7,,
{32}16,25,3h[16:3]/4h[16:3],,,,,,,,,,83,74,6h[16:3]/5h[16:3],,,,,,,,,,3/8<5[8:1],,,,,,,,
{8}8/2,,{32}8>6[8:2],7,6,5h[32:5],{8},8,,2,,
{16}1,2,3,4,8-4[8:1],7,6,5,{8}8b>3[8:1]*<5[8:1],,8bw4[8:1],,
8b,,1>4[8:1]/7,,1/6<1[8:1],,56,,
{32}8x/3x,74,6h[16:3]/5h[16:3],,,,,,,,,,16,25,3h[16:3]/4h[16:3],,,,,,,,,,6/1>4[8:1],,,,,,,,
{8}1/5,6,7/5x,7,4,,{8}73,2,1/6,1,5,2h[16:1],5h[16:1],3h[16:1],6h[16:1],4h[16:1],
{32}8b/3b,7,6,5h[32:5],,,,,1>7b[8:2],8,7,6h[32:5],{8},1,,1,,
{32}8/2b,3,4h[32:6],,,,,,7,,,,1b,2,3h[32:6],,6,,,,,,,,5,,,,,,,,
{32}1b/6b,2,3,4h[32:5],,,,,8<2b[8:2],1,2,3h[32:5],{8},8,,8,,
{16}7,5,6,5,8<5b[8:1],4,5,3,{8}8b>3b[8:1],,8bw4b[8:1],,8b,,17,,
{12}2,2,2,6,6,6,{16}3,5,4,5,2,4,3,4,{8}1w5[8:1],,1b,,
{16}3,7,3,7,2,8,2,8,{8}1xp5[8:1],,1x/2,,{16}2,4,3,5,4,,7,5,6,4,5,,1b/8b,2,3,4,
{8}7-4[8:1],4-8[8:1],7,1,2h[8:1],{16}1,1,3,8,4,7,
{8}5-1-3[8:2],6,5,7,8h[8:1],{16}4,4,7,5,6,4,
{8}8-6-4[8:1],4v7[8:1],8,3,2h[8:1],{16}1,1,3,7,5,6,
{8}4v1[8:1],8-5[8:1],4,8,{16}2,3,4,5,8,7,6,5,
{8}2-5[8:1],5-1[8:1],2,8,7h[8:1],{16}8,8,6,1,5,2,
{8}4-8-6[8:2],3,4,2,1h[8:1],{16}5,5,2,4,3,5,
{8}1-3-5[8:1],5v2[8:1],1,6,7h[8:1],{16}8,8,6,2,4,3,
{8}5v8[8:1],1-4[8:1],5,1,{16}7,6,5,4,1,2,3,4,
{8}5-2[8:1]/8-4[8:1],,5b/8b,,1x,{16}7,7,2,5,3,4,
{8}1>4[8:1],5,16,7,6h[8:1],{16}4,4,7,3,6,2,
{8}5<8[8:1],1,25,3,2h[8:1],{16}8,8,2,7,1,6,
{8}8>3[8:1],5,68,7,{16}8x,7,6,5,41,8,7,6,
{4}5x/8x-4[8:1],2-5[8:1]/8,2/7-4[8:1],7/1-5[8:1],
6-1[8:1]/1,6/3-8[8:1],3/5-1[8:1],5/3-8[8:1],
{8}7-4[8:1],7,2-5[8:1],2,8-4[8:1],8,3,3,
{16}3,5,3,6,3,7,3,8,{32}3,4-8[8:1],5,6,7,8,1,2,{4}4>4b[8:24]/3,A4f/E4/E5/B4/D4/D5,
{1},,{4},,,1bh[8:8],,,,
{8}4,,2h[8:2]/5,,,4,25,,3,,4/7h[8:2],,,5,47,,
{8}6,6,3,3,7,7,2,,{4}1>8[8:4]/8<1[8:4],,,,Ch[8:4]/B2/E3/B3,,{16}1,2,3,4,5bp1[8:1],,,,
{8}7-4[8:1]/5
,6,3/7,2,81,{16}2,3,5>2[8:1]/4,6,7,8,
{8}5/1v6[8:1],8,1/4,3,27,{16}8,7,65,4,3,2,
{8}5-1[8:1],6-8[8:1],5,6,{16}2,3,4,5,1-6[8:1],8,7,6,
{8}1-4[8:1]/5,3,15,6,87,{16}1,2,3/4>1[8:1],5,6,7,
{8}4/8v5[8:1],6,83,2,17,{16}6,7,8/1v6[8:1],2,3,4,
{8}1>4[8:1]/5,2,15,6,78,{16}2,3,4/5-2[8:1],6,7,8,
{8}5/1v6[8:1],8,14,3,{16}2,3,4,5,8,7,6,5,
{8}4w8b[8:1],,{32}4b,Cf,,,,,,,{16}2x,,6,6,1,2,6,5,
{8}3-8[8:1],7-4[8:1]/1,35,7,2,{16}3,3,8,7,2,3,
{8}6/4-1[8:1],8-5[8:1]/2,46,8,2,{16}3,3,5,6,3,2,
{8}1-5[8:1]/7,3/5,16,7,{16}8x,1,2,3,1,2,3,4,
{8}8b/5b-2[8:1],6-8[8:1]/2,58,6,{16}1x,2x,3/7,6,52,3,48,7,
{8}6/1-4[8:1],7-5[8:1]/3,15,7,{16}2x,3x,48,7,61,2,37,6,
{8}5/4,3,12,8,67,56,45,34,
{16}3,4,2,5,1,6,8,7,{32}1,2,3,4,1,2,3,4,8,7,6,5,8,7,6,5,
{36},2b,3,4,5,,,,8b,7,6,5,,,,1b,2,3,4,,,,7b,6,5,4,,{8},
{36}1bs5b[8:2],28,37,4/6,(120)5bw1b[8:3],
