&title=空耳ケーキ
&artist=Oranges & Lemons
&first=0
&des=Osaker
&lv_5=13
&inote_5=(137.65)
{8},,
{32},
{20}3,4,5,,,4,5,6,,,5,6,7,,,6,7,8,,,7,8,1,,,8,1,2x-7[16:1]/3x-6[16:1],,,
{8},A6/D7f/A7,,,1/8,,,2,2/3,,,3,4/B3f/E3,5,6h[8:4],5,4,3,2pp4[8:1],1,
{8}2/8,,,7,7/6,,,6,5/B5,4,3h[8:4],4,5,6,6-3[8:1],3,
{8}3/6,,,3/5,2h[8:2]/4h[8:2],,,2/4,1/5,1/5,8/4,8/4,7>2[12:1]/3<6[12:1],,,,8h[8:2]/4h[8:2],,,
{8}3/7,3h[8:2]/7h[8:2],,,3/7,2/6,2/6,1-5[8:1]b/5,1/5w1[8:1],1xb,,,,
{8}3-6[8:32]/6,,2,1,8,
{16}7,,1,8,1,,
{8}2/7h[4:1],1,8,7h[4:1]/1-4[12:1],2,1,
{16}7x,1x,8x,,2h[4:1]/7,,,8,8,,
{8}1,2h[4:1],1,1,8,
(135)
{8}8xb/7xb,,1xb/7xb,,2xb/7xb,,7xb/3xb,
{16},
{32},
{64},
(137.65)
{8}1/8,,2/7,
{16}3,4h[16:5],3,,
{8}E2f/B1/B2,E2f/B1/B2,6,5-3[8:1]/7-5[8:1],,7/5,,3/5,
{16},4,4/6-1[12:1]*-8[12:1],,5,,
{8}6,,6-1[12:1]*-2[12:1],,6,,6>3[12:1],,6,,2v3-5-3v2[16:7]/7v6-4-6v7[16:7],,,,,,
{8}1x/8xh[8:11],
{24}E6,B5,B4,E4,,,E4,B4,B5,E6,,,E6,B5,B4,E4,,,E4,B4,B5,E6,,,E6,B5,B4,E4,,,E4,B4,B5,
{8}6x-3[12:1]/7x-2[12:1],,,,1h[8:11]/8,
{24}E6,B5,B4,E4,,,E4,B4,B5,E6,,,E6,B5,B4,E4,,,E4,B4,B5,E6,,,E6,B5,B4,E4,,,E4,B4,B5,
{8}6x>4[12:1]/8x-4[12:1],,,
{32},,,
{64},
{128},
{8}2/8,
{16}2,1,2-5[8:1],,
{8}1,8,
{16}7,8,7-4[8:1],,
{8}8,1pp1[4:1],,8qq8<4[16:7]*qq8>4[16:7],,,,,,
{64},
{8}1/8,
{16}3,4,3-8[8:1],,
{8}4,5,
{16}6,5,6<1[8:1],,
{8}4,3<6[8:1],,2-6-3>2[16:3]*-6-1>2[16:3],,,A2f/A3/A1/D2/D3,,,
{8}7/E2/B2/B1,,7/E2/B2/B1,,6/E2/B2/B1,,6/E2/B2/B1,,5/E2/B2/B1,,5/E2/B2/B1,,4-1[8:1]*-7[8:1]/E2/B2/B1,,,,8/E2/B2/B1,,8/E2/B2/B1,,7/E2/B2/B1,,7/E2/B2/B1,,6xb/5xb,,5xb/4xb,,3xb/4xb-8[12:1],,4xb/6xb,,
{16}7,,3,4,3,,8,,8,,3,4,3,,1,,1,,3,4,3,,
{8}2/5,
{8}7xh[8:1],
{16}1,6xh[8:1],,1-5[12:1],5x,,1/4h[1:1],,,,
{8},,
{64}1,E2,E3,A3,,,,,,,,,,,,,,,,,,,,,,,,,,,,,1-3[12:1],E1,E8,A7,,,,,,,,,,,,,1,,,,,,,,,,,,,,,,
{16}4,3,5,4,
{8}6<8[12:1],,6/5-8[12:1],,4-1[12:1]/5,,4/7z3z7[8:6],,7,8,1,2,3,4,4x-2[12:1],,4/5-1[12:1],,6-8[12:1]/5,,6/3-1-4[4:1],,4x-8-5[4:1],,5x-7-4[4:1],,4x-1[8:1],,6x<8[12:1],,5-8[12:1]/6,,5/4-1[12:1],,5h[1:1],,
{48}7x,8x,1x,2x,3x,,,,,,,,2x,1x,8x,7x,6x,,,,,,,,7x,8x,1x,2x,3x,,,,,,,,2x,1x,8x,7x,6xp3qq7q2pp6[8:14],,,,,,,,
{8}6h[8:10],,,,,,,,,,,,7-1[12:1]b,,,,1x-5[12:1]/2,,1/8-4[12:1],,8/7-2-5-3-6-1-7[8:7]*-2-5-3-6-1-7[8:7],,,,,,,,3qq4[4:1],,4q5[4:1],,5<1[6:1],,1v2-4-2v1[8:6],,8,8,7,7,6,6,5,5,2/4,,3/5,,4-8[8:26]*-8[8:26]/6,,8,1/7,2/6,3/5,,3/5,2/6,1/7,1/7,2,2,2,3/5,6,6,6,
{16}7,2,6,3,5,4x,4x,4x,4xw8[8:1]b,4x,4x,4x,4xb,,,,
{16}1b/7b,,2,4,3,,2b/8b,,7,5,6,,1b/8b,,3,5,4,,2b/7b,,3,5,4,5,3xbqq5[4:1]/6xbpp4[4:1],,4xb/5xb,,3xb/6xb,,,,,,,,,,,,E
