&title=Nine point eight
&artist=Mili
&first=0.14
&des=senorita
&clock_count=4
&lv_5=13+
&inote_5=(164)
{1},
{1}2qq5[8:11]/6h[1:1],
{1},
{1}8h[1:1]/5s1z5[8:11],
{1},
{1}6h[1:1]/3v1[8:4],
{1}2v4[8:4],
{1}3h[1:1]/7-2[8:4],
{4}1^6[16:7],,,4-1[8:1],
{8}8,8,8,2,2,2,4,4,
{8}4,6,6,6,1h[8:1],5h[8:1],7h[8:1],3h[8:1],
{8}8,8,8,2,2,2,4,4,
{8}4,6,6,6,8-6[10:1],6-4[10:1],8,2,
{8}1,1,1,3,3,3,5,5,
{8}5,7,7,7,2h[8:1],6h[8:1],8h[8:1],4h[8:1],
{8}1,1,1,3,3,3,5,5,
{8}5,7,7,7,1-5[8:1],6-4[8:1],1,6p4[8:3],
{8}3hx[4:1],,,,3-1[8:1],,5,,
{8}6/8-4[8:1],,5,,,5-7[8:1],3,2,
{16}1-5[8:1],,,,7,,,6,5,,7-5[8:1],,,,3,,
{8}4-7[8:1],,7-3[8:1],,1-5[8:1],,5qq4[4:1]*pp6[4:1],,
{8},,,,6^8[8:1],,4,,
{8}3/1p5[8:1],,4,,,4^2[8:1],6,7,
{16}8-4[8:1],,,,2,,,3,4,,2-5[8:1],,,,5,,
{8}6-4[8:1],,2-5[8:1],,7h[8:1],,{16}5,6,5,6,
{8}5p3>5[1:1],,,,,,,,
{8}7hx[4:1],,,,17,,8-4[8:1],,
{8}3q5[16:5],,6,7,8-4[8:1],,3q5[16:5],,
{8}6,7,8-4[8:1],,4V68[4:1],,,,
{8}1h[8:3],,,,28,,3V52-6[2:1],,
{8}7h[4:1],,,,8,,17,,
{8}2pp2[4:1],1,2,8,7h[4:1],,1pp1[4:1],8,
{8}1,7,6h[4:1],,8pp8[4:1],7,8<2v4[8:5],6,
{1}5b,
{16}E6,,,,E4,,,,C,,1,8,2b/7b,,,,
{8}1x<3[4:1]/2,,1b,2pp3[6:1],,2,8b,,
{8}1x/7,,8b,7qq6[6:1],,7,8bx>6[4:1],1,
{8}2x,,1b,8-4[8:1],,8/1,2b,3,
{8}6xpp1[16:6]/4,,2bv5[8:1],,,,3b/7b,,
{16}2/5x,,3,3,4>8[24:4],,1^6[8:1],,4b,,,,5pp6[16:3],,4,,
{8}3x,2bpp1[4:1],,2,7b,,{16}7,8,7,8,
{8}7xqq4[32:11],,2b^7[8:1],,2,,8b^3[8:1],,
{8}8x/6,7b^4[8:1],,,1b,,5hb[4:1],,
{8}8x>6[4:1],6,8,7qq6[6:1],,7,1b,,
{8}8x/2,,1b,2pp3[6:1],,2,1bx<3[4:1],8,
{8}7x,,8b,1-5[8:1],,1/8,7b,6,
{16}3xq1[4:1]/5,,,,6h[4:1],,,,,,,6,6/2b,,3b,,
{16}7/5x,,6,,4pp5[16:3]/5,,3,,4b/2,,,,4qq3[16:3],,5,,
{8}6x,7bqq8[4:1],,7,2b,,{16}2,1,2,1,
{8}2xpp5[32:11],,7b^2[8:1],,7,,1b<3[16:3],,
{8}1x,2bqq3[16:5],,,4-8[8:1],,4<3[16:15]*>5[16:15],,
{1}4b,
{1}A4h[8:1]/D5h[8:1]/D4h[8:1],
{8}A2h[8:1]/D2h[8:1]/D3h[8:1],,,,,,C,,
{8}A6h[8:1]/D6h[8:1]/D7h[8:1],,,,A4h[8:1]/D5h[8:1]/D4h[8:1],,,,
{1}A1h[8:1]/D1h[8:1]/D2h[8:1],
{1}E7h[8:1]/E8h[8:1]/B7h[8:1],
{1}E3h[8:1]/E4h[8:1]/B3h[8:1],
{2}B4h[8:1]/B6h[8:1]/B5h[8:1],B8h[8:1]/B2h[8:1]/B1h[8:1],
{8}6qq4[16:5],,,2qq8[16:5],,,,,
{8}5V73[2:1],,,1-3[8:1],,,,,
{8}5-1-3[16:7]*-1-7[16:7]/4h,,,,,,,,
{1}4-8-6[16:7]*-8-2[16:7]/5h,
{8}3h[8:1],,3h[8:1],,3h[8:1],,3h[8:1],,
{8}3/7h[8:1],,7h[8:1],,7h[8:1],,7h[8:1],,
{8}7/1h[8:1],,1h[8:1],,1h[8:1],,1h[8:1],,
{8}2h[8:1]/6h[8:1],,7h[8:1]/3h[8:1],,8h[8:1]/4h[8:1],,1h[8:1]/5h[8:1],,
{24}8x/4x,7x/3x,6x/2x,5x/1x,4x,3x,2x,1x,8x,7x,6x,5x,4x,3x,2x,1x,8x,7x,6x,5x,4x,3x,2x,1x,8x,
{24}7x,6x,5x,4x,3x,2x,1x,8x,7x,6x,5x,4x,3x,2x,1x,8x,7x,6x/2x,,,C,,,
{8},,2h[8:1]/8,,,53,C,,
{8}6h[8:1],5h[8:1],8h[8:1],3h[8:1],4h[8:1],1,,,
{16}2,8,2,7,2,6,2,5,2,4,2,5,2,6,2,7,
{16}2,8,3,8,4,8,5,8,4,,3,,2xp6[4:1]*<2[2:1],,,,
{16}2b,,,,,,,,1h[16:3],,,,28,,37,,
{8}4b/6b,,,4bz8[4:1]/6bs2[4:1],,,,,
{16}E4/B3/A3,,,,E7/B6/A6,,,,C/B4/B5,,8,1,7b/2b,,,,
{24}8bx>6[4:1],1bx>6[24:5],2bx>6[24:4],{8}3bx^6[8:1],8bx,7xqq6[6:1],,7x,8bx>6[4:1],,
{8}8x/2,,1b,2pp3[6:1],,2,1bx<3[4:1],8,
{8}7x,,8b,1v4[8:1],,1/8,7b,6,
{8}3xqq8[16:6]/5,,7bv4[8:1],,,,6b/2b,,
{16}7/4x,,6,6,5<3[4:1],,8^3[8:1],,5b,,,,4qq3[16:3],,5,,
{8}6x,7bqq8[4:1],,7,2b,,{16}2,1,2,1,
{8}2xpp5[32:11],,7b^2[8:1],,7,,1b^6[8:1],,
{8}1x/3,2b^5[8:1],,,8b,,4hb[4:1],,
{8}1x<3[4:1],3,1b,2pp3[6:1],,2,1bx<3[4:1],,
{8}1x/7,,8b,7qq6[6:1],,7,8bx>6b[4:1],1x,
{8}2x,,1b,8v5b[8:1],,8/1,2b,3,
{16}6xpp1b[16:6]/4,,,,3bv4[8:1],,,,,,,,3b/7b,,,,
{16}2/4x,,3,,5qq4[16:3]/4,,6,,5b/7,,,,5pp6[16:3],,4,,
{8}3x,2bpp1[4:1],,2,7b,,{16}7,8,7,8,
{8}7xqq4[32:11],,2b^7[8:1],,2,,8b>6[16:3],,
{8}8x/6,7bpp6[16:5],,,5-1[8:1],,5^8q4[16:15]*^2p6[16:15],,
{1}5b,
{1}A5h[8:1]/D5h[8:1]/D6h[8:1],
{8}A7h[8:1]/D8h[8:1]/D7h[8:1],,,,,,C,,
{8}A3h[8:1]/D4h[8:1]/D3h[8:1],,,,A5h[8:1]/D5h[8:1]/D6h[8:1],,,,
{1}A8h[8:1]/D1h[8:1]/D8h[8:1],
{1}E3h[8:1]/E2h[8:1]/B2h[8:1],
{1}E7h[8:1]/E6h[8:1]/B6h[8:1],
{2}B5h[8:1]/B3h[8:1]/B4h[8:1],8b,
{1},
E
