&title=Prism Fountain
&artist=t+pazolite
&first=0
&des=MXCustard
&lv_5=14+
&inote_5=(200){4},{8},,,,,,,1,
2,3,4/8,7,6/5,4,
7/3,8-3[8:1],2-6[8:1],8,2,8V61[4:1],4,8,
3>8[8:1],4,{4}3b,{8}5,3,7,2,
{16}8,1,8,1,{8}8<3[2:1],2/7,8,1,1,1,
{4}1w5[8:1],1b,{8},6,7,8,
5/1,2,3/4,5,2/6,1-4[8:1],7-3[8:1],1,
7,2-6[8:1],1,2,8,7-3[8:1],5,7,
2-5[8:1],4,2z6z2[1:1],7,{2}2,
{8},,,7,8,1,6/2,3,
4/5,6,3/7,2-6[8:1],8p4[8:1],2-5[8:1],8,2,
{4}7v4[8:1]*>2[8:1],7b,{8}3,5,2,7,
{16}1,8,1,8,{8}1>6[2:1],7/2,1,8,8,8,
{4}8-3[8:1],8b,{8}4,5,6/3,2,
1/7,6,5/2,1,5-3[8:1],2-6[8:1],5,2,
,7,8-3[8:1],3,4/8-5[8:1],5,4/8-3[8:1],2,
4/8-5[8:1],6,4/8,2,{2}1h[1:1],
,{8}5,5,5,5,
4,4,4,4,{16}6,5,6,5,{8}6,4,
3,3,3,3,4/6h[8:1],{4},{8}6/4h[8:1],
{4},8,{8}5/3h[8:1],{4},{8}3/5h[8:1],
{2},{8}4,4,4,4,
5,5,5,5,{16}3,4,3,4,{8}3,5,
6,6,6,6,3h[8:1],5,,5h[8:1],
{4}3,1,{8}6h[8:1],4,,4h[8:1],
{4}7<4[8:1],7/1-5[8:1],1,4,
4,4,5,5,
{8}6x,6x,{4}6x,7,7,
8,8,{16}1,{8},{16}2,{8},3,
{16},4,{8},{16}5,{8},{16}6,{8},7,{16},8,{8},1,
2,3,4,5,6,7,8,
{16}1,2,3,4,5,6,7,8,{4}1h[4:1],3h[6:1],
2h[6:1],1h[6:1],8h[6:1],7h[6:1],
6xV47[4:1],1pp3[8:1],1,{8}7,8,
7/3,4,7v4[8:1],4V61[4:1],7,1-5[8:1],2,3,
4-1[8:1]*-8b[8:1],3,{4}4b,{8}2-8[8:1],7-5[8:1],2-4[8:1],7-1[8:1],
2-6[8:1],7,{4}2,{8}7/5,8,7/5,4,
5/7h[8:1],1h[8:1],3h[8:1],5h[8:1],{4}7,{8}2,1,
2/6,5,2v5[8:1],5V38[4:1],2,8-4[8:1],7,6,
5-8[8:1]*-1b[8:1],6,{4}5b,{8}7/2,5,1-4[8:1],4V25[4:1],
1,5-1[8:1],6,7,{4}8-3[8:1],8/6b-1[8:1],
6/4bw8[8:1],4,2>5[4:1],A2,
7>2[4:1],A7,5<8[4:1],A5,
2>5[4:1],A2,7v2[4:1],A7,
5v8[4:1],A5,{8}3v6[4:1],2,1,8,
{4}7-4[8:1],7,{8}5x,5x,2,1,
2/8,7,6/5,4,5/3,6,7/8,1,
2/8,3,4/5,6,7/5,4,3/6,2,
4/6,3,2/5,1,{16}6,4,6,4,7,3,7,3,
{8}8w4b[8:1],7x/1x,{4}8b<2p8[1:3],{2},{1}C,
C,
{4}3,2<5qq8[1:1],{2}2,
,{8}5,6,1/7,8,
7/1,6,5/4,3,2/4,5,6/3,7,
5/3,6,7/4,8,4qq8[8:5],8,8,8,
7,7,7,7,{16}6x,5x,4x,3x,7,6,5,4,
8,7,6,5,1,8,7,6,{2}5/1,
{1},,,Cfh[2:9],
{2},,,,,,,2x-6-3-8[4:7],
,,,7-3-6-4-8[4:7],
,,,1-6-2-4-7[4:7],
,,,8-6-2-7-4[4:7],
,,,{4}Cf,
{8}B8,2x,
{4}B7,{8}B6,3x,B5,3x,{4}B4,
7x/B3,6x/B2,B1,{8}B8,4x,
{4}B7,{8}B6,3x,B5,3x,{4}B4,
{8}6x/B3,6x,7x/B2,7x,8x/1x,2,3,4,
5/6,7,8,1,2/7,6,5,4,
3/5,2,1,8,{16}7/8,1,2,3,4/5,6,7,8,
1/2,3,4,5,6,7,8,1,{4}2/6-1[8:1],6/2-6b[8:1],
2/8-2>3[8:1]*-6>5[8:1],8b,{8}4,{16}3,4,{8}2,{16}6,5,
{8}7p3[8:1],1-5b[8:1],7b,1,7,{16}7,5,{8}8-3[8:1],3V17[4:1],
8b,4,{4}5,{8}4,{16}6,5,{8}7,{16}3,4,
{8}2q6[8:1],8-4b[8:1],2b,8,1,{16}7,8,{8}6-3[8:1],3V51[4:1],
6b,1,{4}8<5[8:1],{8}8bx/2bx,{16}2,4,{8}3,{16}6,5,
{8}8p4[8:1],2-6b[8:1],8b,2,7,{16}7,5,{8}8-3[8:1],3V17[4:1],
8b,5,{4}4,{8}3,{16}3,4,{8}2,{16}6,5,
{8}7p3[8:1],1-5b[8:1],7bq1[4:3],1,{2}7,
{4}2-6[8:1],2b,{8}7,{16}7,8,{8}6,{16}3,4,
{8}2q6[8:1],8-4b[8:1],2b,8,2,{16}2,4,{8}1-6[8:1],6V82[4:1],
1b,5,{4}4,{8}5,{16}3,4,{8}2,{16}6,5,
{8}7p3[8:1],1-5b[8:1],7b,1,8,{16}2,1,{8}3-6[8:1],6V48[4:1],
3b,8,{4}1x>4b[8:1],{8}7x/1x-5b[8:1],6x,1x,6-1[8:1],
1V74[4:1],6,2x-6b[8:1],3,2x>5b[8:1],5,2x,7-2[8:1],
2-5-1[4:1],7,3b,4,3,{16}8,1,{8}8,5,
2/7,{16}1,8,{8}1,4,6-4[8:1],6,2-6[8:1],2,
8p4b[8:1]*q4[8:1],8,{4}8b,{8}3,6V48[4:1],,6,
{4}2-5-3[4:1],{8}2,8>6[8:5],,8,{4}3,
1-4[8:1],1,{8}6,3V51[4:1],,3,
{4}7-4-6[4:1],{8}7,1<3[8:7],,1,,5,
5h[2:1],{2},{8}2V48[4:1],,2,
{4}7-4-6[4:1],{8}7,1pp8[8:7],,1,7,7,
6,6,5,5,,7-4[8:1],8,7,
2-6[8:1],8<4[4:1],2,8,,1,1,2,
3-8[8:1],4,{4}3b/5<8[8:1],{8}5,2>5[8:1],,2,
{4}6v4[4:1],{8}6,8V25[4:1],,5v3[4:1],6,7,
{4}8-5b[8:1]*-4[8:1],8b,{8}3,6>3[8:1],,6,
{4}2V48[4:1],{8}2,7<3[8:3],,7,1-3-7-2-5[2:1],8,
1,{2},{8}7<4[8:1],,7,
{4}3v5[4:1],{8}3,1V74[4:1],,4v6[4:1],3,2,
{4}1-4b[8:1]*-5[8:1],1b,{24}8,7,6,5,4,3,2,1,8,7,6,5,
4,3,2,1,8,7,6,5,4,3,2,1,{16}4,8,4,8,5,7,5,7,
3,4,3,4,2,1,2,1,{8}3,8,2/7,3,
4/5,6,3/7,2-6[8:1],8p4[8:1],2-5[8:1],8,2,
{4}7v4b[8:1]*>2[8:1],7b,{8}3,5,2,7,
{16}1,8,1,8,{8}1>6[2:1],7/2,1,8,8,8,
{4}8-3[8:1],8,{8}4,5,6/3,2,
1/7,6,5/2,1,5-3[8:1],2-6[8:1],5,2,
,7,8-3[8:1],3,4/8-5[8:1],5,4/8-3[8:1],2,
4/8-5[8:1],6,4/8,2,{2}1bqq1b[4:3]*pp1[4:3],
E
