&title=AbsoluTe disoRdeR
&artist=Acute Disarray
&first=0
&des=ZYK*AL vs ARC*PK
&clock_count=4
&lv_5=15
&inote_5=(256){1},
{8}B7/E7/E8,,,3h[8:5],,,5,,
{8}6,6h[8:3],,,4,3,2,,
{8}2h[8:3],,,3h[2:1],,,,4>1[8:7],
{1},
{8}5,5qq3[8:5]*pp7[8:5],,,,,,,
{4},E6,E5,E4,
{8}1,1p4[8:5]*q6[8:5],,,,,,,
{4},B2,C,B7,
{8}8<6-4[4:3],,,4,,,3,,
{8}2,2v5[8:5],,6,,,6,7,
{4}8,8h[4:1],7h[4:1],6h[4:1],
{8}5V31[4:3],,,,6,7,8,,
{4}8h[4:1],6h[4:1],4h[4:1],2h[4:1],
{4}7h[4:1],5h[4:1],3h[4:1],1,
{2}1h[4:1]/7h[4:1],5h[4:1]/6h[4:1],
{8}3/4<7[8:1],,2,2-5[8:1],,8,8-3[8:1]*-5[8:1],,
{1}8bV26[2:1]*V62[2:1],
{8}5h[4:3],,,B3,,,1-5[8:1],,
{1}1b/7bV14[2:1]*V52[2:1],
{8}C,,,5/4h[8:3],,,{16}6,5,6,5,
{8}7b-4[8:1],,3,2>5[8:1],,8,8-4[8:1],,
{8}1<6[8:1],,5,5-1[8:1],,2,2h[4:1],,
{8}3,4,3/5,4,5,4/6,7,7,
{4}2-5[8:1],2/8-4[8:1],3/8,{16}2,5,2,5,
{8}3b>8[8:1],,4,5,6-8[8:1],1-5[8:1],6,1,
{8}6-1[8:1]*-8[8:1],,6-4[8:1],,2-6[8:1]/6,,2,8,
{8}8-4[8:1],,8,2,2>5[8:1],2,6<1[8:1],6,
{8}3v8[8:1],3,7<4[8:1],7,3-1[8:1]*-8[8:1],,3,,
{8}5h[4:1],,4,3,2/5,6,3/7,2,
{8}1/6-3[8:1],6,1>4[8:1],1,{16}5,6,7,8,1,2,3,4,
{8}1/5,1,1,6/8,7,7,2/4,3,
{8}6,5,7,4/8,,2bh[4:1]/6bh[4:1],,,
{8}1b>4[8:1]/5b,1/5h[4:1],,,3b/7b-4[8:1],3h[4:1]/7,,,
{8}2b/6b<1[8:1],2h[4:1]/6,,,3b,3h[4:1],{16}4,5,6,7,
{8}4/8-3[8:1],,5>2[8:1],5,7,7h[4:1],{16}8,1,2,3,
{16}8/4,7,6,5,4,3,2,1,8-4[8:1]/4h[4:1],,,,,,,,
{16}2xh[16:3],,,3h[16:3],,,4,,8xh[16:3],,,7h[16:3],,,6,,
{16}1x,,,4/3,,,6/2,,6xv1[8:1]/2xv5[8:1],,,,,,,,
{8}8-4[8:1]/4,,3,2,1-5[8:1],,5,6,
{4}7-4[4:1],4V68[4:1],8V64[4:1],1,
{8}1b-6[8:1]*-4[8:1],1,,,5bv8[8:1]*v2[8:1],5,,,
{8}3b-8[8:1]/7b-4[8:1],3/7,,,6b,6h[4:1],{16}5,4,3,2,
{8}1/5-1[8:1],5,2-5[8:1],2,6,6,4V28[4:1],4,
{4}8V24[4:1],7,6,5,
{8}4-2[8:1]/6,4/6h[4:1],,,1/8-4[8:1],1h[4:1]/8,,,
{4}3b-1[8:1],7b-5[8:1],4b-8[8:1],{8}7,6,
{8}6-4[8:1],,4,3,2-5[8:1],,6,7,
{8}8-4[8:1],,3,2,1s5[4:1],,,,
{8}8,8,2,2,6,6,4,5,
{4}3h[4:1],4h[4:1],5h[4:1],6,
{8}6,5,7,,5/8-5[8:1],,4/8,,3/8-4[8:1],3,2/8,,1-5[8:1],,1/6,,
{8}1/6,6,1/7-4[8:1],,3/7,,{16}3,4,3,4,
{8}2V46[8:1],,2/8h[2:1],,{24}D7,D8,D1,D2,D3,D4,D5/E5f/A5,,,,,,
{16}6,5,6,,3,4,3,,1b/8b,,,,6,5,6,5,7b,,,,3,4,3,4,2b,,,,4/5,,,,
{8}7-4[8:1],7,2-5[8:1],2,8-3[8:1],8,1<2[8:3],1,Cf,,,,8-4[8:1]b,,8,,
{8}5h[4:1]/2,,3h[4:1],4,,4h[4:1],3,2,
{16}2/4,,,3/5,,,6/4h[8:3],,,,7,,6,,5/3,,
{8}2-5[8:1],,1/2,8,7^4[8:1],,7/3,,
{8}1h[8:1],,{16}51,62,73,84,{8}1b/5b-1[8:1],,5b,,
{8}7,,6h[4:1],5,,5h[4:1],6,7,
{16}7/5,,,6/4,,,3/5h[8:3],,,,2,,3,,4/6,,
{8}7h[8:1]/5,,{16}4,3,2,1,{8}8b/4b-8[8:1],,{16}4b/2b^5[8:1],,,,
{8}7b-3-6-1b[2:1]/2b,,,,,,,,
{8}2h[4:1],,8,8h[4:1],,3,2,7/1,
{16}7/1,,,2/6,,,5/3v1[4:1],,,,4,,5,,6,,
{4}7-3[8:1],7/1-5[8:1],8qq6[8:1]/1,8/4qq2[8:1],
{16}7/4,,,,8,7,6,5,4b-8b[8:1]/3b,,,,,,,,
{8}7h[4:1],,1,1h[4:1],,6,7,2/8,
{16}2/8,,,7/3,,,4/6v8[4:1],,,,5,,4,,3,,
{4}2-6[8:1],2/8-4[8:1],1-5[8:1]/8,1,
{16}7b/4,3,2,1,4b/8,7,6,5,4[4:1]/1b,,,,E1f,,,,
{16}3xh[2:1]/B6,B5,B4,,,,,,,,,,,,,,6xh[2:1]/B3,B4,B5,,,,,,,,,,,,,,
{16}6,,6,,5,,5,,7,,7,,5,,5,,8,,8,,4,,4,,7,,7,,3<2[2:3],,3,,
{1}Cf,,
{8}2/4,,3/4,,4/5,,4/6,,5,7,4,6-3[8:1],3-8b[8:1],,2bx,,
{8}1^4-6[4:1],,6-2b[8:1],7,8^5[8:1],,8,,
{8}1-5[8:1],4,1,6,,3,2h[8:1],,
{8}7V51[4:1]/1,,2,3,4-8b[8:1],,4/8,,
{12}7h,1h,8h,2h,8h,1h,{32}A6,D6,A5,D5,A4,D4,A3,D3,A2,D2,A1,D1f/A8/E1,,,,,
{4}3-6[8:1],7-2[8:1]/3,7/4-1[8:1],8/4,
{8}7,6,5h[4:1]/2,,3,4,5/6,,
{8}7/4,7/4,6/3,6/3,{16}4,5,4,5,3,4,3x,,
{6}2h[12:1]/4h[12:1],3h[12:1]/5h[12:1],4h[12:1]/6h[12:1],3h[12:1]/7h[12:1],6h[12:1]/2h[12:1],1h[12:1]/5h[12:1],
{1}8b^6qq4^2qq8[1:3]/4bh[1:3],,,
{8},,,,,5b/1b,,,{1}7b-1v3-5v7b[1:3]/3bh[1:3],,,{4},,,8x-4[8:1]b,
8b/2,1-5[8:1],{8}6/1,6-3[8:1]b,,6/2-7[8:1],,5-1-6[4:1]b/2,,,3,3-8[8:1],,
4-7[8:1]b/3,,4/2-4-6[4:1],,,1<6[8:1]b,,1/4>1[8:1],,5-1[8:1]b/4,,,2-6[8:1],,,8-4[8:1]b,,
8/3,,2-6[8:1],,7/2,7-4[8:1]b,,7/3-8[8:1],,6-1-5[4:1]b/3,,,2,2>5[8:1],,6<1[8:1]b/2,,6/3s7[4:1],,,8,8-4[8:1]b,,{16}8b,Cf,
{4},,,2-6[8:1]*-5[8:1],2b,8x/4x,{8}7-5[8:1],3-1[8:1],7,3,4-7[8:1],8-3[8:1],4,8,6,
6-1[8:1]/2-5[8:1],,6/2,,8/4,8/4,,{16}7,6,5,4,1,2,3,4,
{8}8b/5,,6>3[8:1]/3b,6b/3qq1[8:1]*-8[8:1]b,,,,,
7/4,,{12}5,6,4,5,3,4,{8}2-5[8:1],2,8-4[8:1],8,1-5[8:1],1,7-4[8:1],7,3,3,
{12}8,4,7,3,6,2,5,1,6,2,7,3,{8}8^7v5[8:3]b,8,4>3v1[4:1],4,,,,,
{16}6b,2,6,2,6,2,6,2,
6,2,6,2,6,2,6,2,
7,3,7,3,7,3,7,3,
7,3,7,3,7,3,7,3,
6,4,6,4,6,4,6,4,
6,4,6,4,6,4,6,4,
5,3,5,3,5s1[4:1],3,5,3,,,,,,,,,
2b,6,2,6,2,6,2,6,
2,6,2,6,2,6,2,6,
3,7,3,7,3,7,3,7,
3,7,3,7,3,7,3,7,
4,6,4,6,4,6,4,6,
4,6,4,6,4q5[2:1]b,6,4,6,
{4},,,C,
{8}5h[24:1]/3h[16:1],5h[16:1]/3h[24:1],,5h[24:1]/3h[16:1],5h[16:1]/3h[24:1],,A8/E1f/A1,,
6h[16:1]/4h[24:1],6h[24:1]/4h[16:1],,6h[16:1]/4h[24:1],,6h[24:1]/4h[16:1],,,
{16}3,5,3,5,,,3,5,3,5,,,E1f,A8/A1,,,
6,4,6,4,,,6,4,6h[4:1],,,,C,,,,
{32}3,2x,5,6x,3,2x,5,6x,{8},{32}3,2x,5,6x,3,2x,5,6x,{8},E1f`A8/A1/B1/B8,,
{32}6,7x,4,3x,6,7x,4,3x,{8},{32}6,7x,4,3x,6,7x,4,3x,{8},D1f`D8/D2/E8/E1/E2/A8/A1/B8/B1,,
{1}Ch[1:2],,
{1}8>2-6>4[4:11],,7-3b[4:3],,
{8}2,2q5[8:9],,,,,,,
{4},6,7,8,
{8}1,1pp6b[8:9],,,,,,,
{4},5,4,3,
{8}2h[8:3],,,4h[8:3],,,3,,
{8}2/5,2-5[8:3]/5h[4:1],,,,,6,,
{8}7,,6,5/6,,4/5,,3>1[4:1]/4h[8:3],
{8},,,,,4,5,6,
{8}4/7,4qq2>3[8:5]/7qq5<6[8:5],,,,,,,
{4},4/7,3,5,
{8}1/8,1/8,,5/6,,2-5[8:1]/4v7[8:1],,2b/4b,
{4},6h[2:1],{24}E1,E2,E3,E4,E5,E6,E7,E8,D1,D2,D3,D4,
{8}A4/A5/D5f/E5/7bh[4:1],,,5h[4:1]/6h[4:1],,,{16}3,4,3,4,
{8}2bqq5[4:3],,5,,6,6,6,,
{8}8b>3[4:1],,4,4h[8:3],,,{16}6,5,6,5,
{8}7bpp3[4:3],,3,,2,2,2,,
{8}1,1,,2h[4:1]/8,,4,3,5,
{8}5,6,6,7,7,8,8,,
{8}1/7,1/7,,2/6h[8:3],,,{16}4,5,4,5,
{16}3bh[4:1],,,,5,4,6bh[4:1],,,,1,,1-5[8:1],,,,
{8}1b/8b,,,6V84[2:1],,5,5-2[8:1],,
{16}5b,,,,,,3,4,3,,2/5,,2-4[8:1]/5-1[8:1],,,,
{16}2b/5b,,,,,,3h[8:3]/8,,,,,,6,5,6,5,
{16}7bh[4:1],,,,3,4,2bh[4:1],,,,8,,8-4[8:1],,1,,
{8}8b,,2,2h[4:1],,5,4,7,
{8}7b,5,6,2b,4,3,8,1bpp4b[4:3]/7bqq4b[4:3],
{1},
{24}E4/E5,B3/B5,B2/B6,E2/E7,,,{4}1xh[4:1]/7xh[2:1],,,
{16}3-6b[8:1],,,,3/7-4b[8:1],,,,7/2-6b[8:1],,,,8<5b[8:1]/2,,,,
{8}3-7b[8:1]/8,,3/4-1b[8:1],,4/6-3b[8:1],,2>5b[8:1]/6,1,
{8}2/8,,7/8,1/6,,2/4,2h[4:1]/4,,
{16}4,5,6,7,8/4,3,2,1,4,3,2,1,8,7,6,5,
{8}4/8,4/8,4-7-2[4:1]/8-3-6b[4:1],,4b/8b,,,,
{8}1<6[8:1],,1>4[8:1],,1/5x,6,7-3[8:1],,
{8}7/8,,1,,2-5[8:1]*v4[8:1],,2b,,
{16}6x,5x,6x,5x,7b,,,,2,1,2,1,3b,,,,
{16}8h[8:1]/E2,E3,E4,,,,1hx[8:1]/E8,E7,E6,,,,2v5b[8:1]/4,,,,
{16}2/6-1b[8:1],,,,4/6,,,,4/8,3/7,2/6,1/5,4/8-4[8:1],,,,
{32}8b,B8,Cf,B4,,,,,{16}2-6b[8:1],,,,{32}2b/7V53[8:1],B2,Cf,B6,,,,,{4}7/1-5b[8:1],
{16}1b,,,,3/7,,,,4x,5,4,5,3b/6b,,,,
{16}2,5,2,5,2,5,2,5,3,6,3,6,4,7,4,7,5,8,5,8,5,8,5,8,5,7,5,7,5,7,5,7,
{16}5,4,3,2,5,6,7,8,2,3,4,5,8,7,6,5,3/4,,3/4,,2/5,,2/5,,{32}1/6,8,7,6,5,4,3,2,{4}1b/7b,
{8}2-5[8:1]/8,,6-2b[8:1]/2,,4^1[8:1]/6,,4/8,,
{32}7/3x-7b[8:1],6,5,4,{8},1-6[8:1],,8^5b[8:1],,{32}8b/4b,3,2,,{8},
{8}7-4b[8:1]/1x,,3-7[8:1]/7,,5^8b[8:1]/3,,5/1,,
{32}2/6x-2[8:1],3,4,5,{8},8^5b[8:1],8,{8}3bv8[8:1],4b-7b[8:1],3b,4b,
{8}1b-5[8:1],,8-4b[8:1]/1,,8/3,3,5/2,,
{32}1bx/5bxv2[8:1],2/A6,3/A7,4/A8,{8},,,8,7/3,6^3b[8:1]/4,,
{8}6b/2b-6[8:1],,2/7^2b[8:1],,7/4-7b[8:1]*-8[8:1],,4,,
{16}1,2,3,4,5/1,6,7,8,{8}1v3[8:1]/5v7b[8:1],,1/5`Cf,,
{8}8b-4b[8:1]/4b,8,3-8[8:1],3,5-1b[8:1],5,2,3,
{32}8x^3[8:1]/4xv7b[8:1],7,6,5,{8}4,8,,{16}4,5,6,7,8/5xV71b[4:1],1,2,3,
{8}4b^1[8:1]/5b,,4,,7x/8x,7/8,6/1,,
{32}1x^6b[8:1]/5xv2[8:1],2,3,4,{8}5,1,,{16}5,4,3,2,1-6[8:1]/4,8,7,6,
{8}5b-8b[8:1]/1b,,5,,4,3,2-6[8:1]/8,,
{8}2b^5[8:1]/6b^1b[8:1],,,,8,7,6/4,,
{16}3b,4,3,4,2,,6b,5,6,5,7,,4b,5,4,5,
{16}3b,4,3,4,2b,5,2,5,1b,6,1,6,8b-4[8:1],7,8,7,
{1}8b-6p3^8b[4:6]*-2q5^8b[4:6],,
{2}C,
{16}3,7,3,7,3,7,3,7,
{16}4,8,4,8,4,8,4,8,5,1,5,1,5-1[8:1],1,5,1s5b[204.8#5:1],
{1}5b,
E
