&title=以父之名
&artist=周杰伦
&first=0
&des_1=Akris_Ren
&des_2=Akris_Ren
&des_3=Akris_Ren
&des_4=Akris_Ren
&des_5=Akris_Ren
&lv_5=13+
&des_6=Akris_Ren
&des_7=Akris_Ren
&des=Akris_Ren
&clock_count=4
&inote_5=(87){4},{16},,,,,,,,,,,,,,,,,,,5b,
,,,4b,,,,B6,
B5,E5,E3,B3,B4,E5,C,Ch[16:13],,,,,,,,,,,,,,,{8}Ch[16:11],
{16},,,,,,,,,,,,,,,Ch[4:3],
,,,,,,,,,,,,,,{8}Ch[16:11],
,,,,,4h[16:5],
{16},,,5h[16:5],,,,,{8}4h,3h[8:3],
,,2h,1h[16:13],,,,5h[16:5],
{16},,,,,6h[16:1],4h[16:1],6h[16:7],,,,,,,{8}4h[8:3],
,,5h,6h[4:3],,,,,,5h[8:1],
4h[8:1],5h[8:3],,,4h[8:1],5h[8:3],
,,6h[8:1],7h[8:5],,,,,6h[8:1],
5h[8:1],4h[8:1],3h[8:3],,,4h[8:1],5h[8:3],
,,4h[8:1],3h[16:9],,,,,,,,5/4-7[16:3],
4,4/5,2,1/8-4[16:3],
8,8/2,5,5/6-2[16:3],7,6/5,2,1,
8,{16}8h[4:1],1h[16:3],,,,,{8}1/8-5[8:1],8/4,8,4-1[4:1],
5,4,{16}8,,,6,5,4,{8}3h[16:3],{16},5,6,7/8,
1/2,3/4,{8}5/6,{16},5/4-8[16:3],,5,,4,,7,,8/7-4[16:3],,7,
,8/7,,3,,3-1[16:3],,5,,5/3,,8,,8h[8:1],,1,
{48},,,,,,,,{12}5,4,7h[12:1],6h[12:1],5h[12:1],4h[12:1],3h[12:1],2h[12:1],1h[12:1],8h[48:7],
{48},,,{16}7,{48},,{12}6,5h[16:13],{3}3h[48:35],{4},,{48},{16}5,
4,5/6,4/3,5/6,4,3,{8}B2/B3/E4,{16},4,5,4/3,
5/6,4/3,{8}B7/B6/E6,{16},4/5,6/3,7/2,7/2,2/7,{8}B5/E5/B4/B3/E3/B6/A2,{16},4,5,8/4,
8/4,8/4,{8}E8/B8/B1/E2,{16},5h[8:1],,4,3,2,1,B6/B5/E5,,4,5,4,
6/3,B6,B3,E5,,E8/C/E4,,E2/C/E6,,3,5/6,3/2,,5h[8:1],,4h[8:1],
,,,3x,2,1/8,7,6,{12}B7/B6/E6,B2/B3/E4,{48},,,,{16}4,5,7/8,6/5,
4/3,A1/D2,,,2,3,4,5,E7/B7/B8,E3/B3/B4,,6,5,4,3,2,
B6,B7,B8,B1f,,4,5,6,7/8,6/5,4/3,E1/B8/B7/B6/B5/B4/B3/B2/B1,,2,3,4/5,
E6,E4,E8,E2f,,5,4,6,5,4,8,1,7,6,5,4,
E6,E8,{24}E3,,4,{16}5,4,3,6,{8}E6,{16}E4,4,5,6/5,4/3,6,
{8}E7,{16}E3,2,3,4/5,6,4,{8}D6,{16}D2,3,4,5/6,4/3,5/6,
{8}4,{16}3,4h[8:1],,6,6/5,4/3,5/6,4/3,2,1,8,7,6,5,
4/3,2h[16:3],{8}1h[8:1],,2/1,{16}2,3,4,5,E6,E4,B7/B8,B1/B2,
,,{8}5bh[8:1],{16}4,3,2/4,5/6,7,8/1,3,4/5,7,3,6,2,
{8}E6/B5,B4/E4,{16}4,5,6,4,3,E5,,5,4,6/3,8/1,8h[8:1],
,1,,5,4,6/3,7/2,B6,B3,E5,,4,5,4,6/3,8/2,
6/4,6,,5,4,3,5/3-6-1[16:5],4,,,{8}3,{16},,,E2,
E3,,,4/5-8[16:3],,5,,1-4[16:3],,7,,5-8[16:5],,5,,5,
,,,,,4,,3,,2,,1pp5[4:1],,2,,1,
,6h[8:1],,,,6,,5/4,,4-7[16:3],,5,,5-2[8:1],,5,
,5,,3,,3/2,,3/2,,B2,{8}E5,{16}B6,E5,,E6,
,E2,,3/5-7[16:3],,5,,1-3[4:1],,1,,4-8[4:1],,4,,4,
,1h[8:1],,,,6/4-1[16:3],,6,,4,,8,,,,5,
4,5,,4/5-8[16:3],,5,,1-4[16:3],,1,,5-8[16:3],,5,,3,
,2h[8:1],,,,E3,,E5,,B6/B5,{8}E5,{16}B3/B4,E5,,1,
,2,,4/6-1[16:3],,6,,6/3-7[16:3],,3,,3/6,,2,,2,
,1h[16:3],,,,,{8}2-5[4:1],3,4-7[4:1],5,4,
,,2/8-4[16:3],1,2-5[16:3],5,2,6h[8:1],
{16},,4,3,2,1,{8}B8/B7,{16}8,7,8,7,6/5,1/2,2h[8:1],1h[16:1],
,,{8}2/3-6[16:3],3,7-2[8:1],7,7-4[16:3],6,7,
{4}3h[8:1],{8}8/2-5[16:3],1,6-1[8:1],6,{16},,2,3,
{8}4h,4/5-8[16:3],5,1-4[16:3],8,5-8[16:3],5,5,
,3,{16}5,6,4,3h[16:3],,,,,2,1,{8}3,
{1}5,
E
