&title=にゃんのパレードマーチ♪
&artist=DJ TOTTO feat.にゃん
&first=1.52
&des=G3812
&lv_3=7
&inote_3=(162.03){1},,,,,,,,,4,4,
{2}5,5,4b/5b,,
{2}3,3,24,,5,5,46,,7,7,18,,2,2,34,,5,5,6,56,7,7,8,18,1,1,2,28,3,3,4,4b,
{1}6-2[1:1],,3-7[1:1],,5-2[1:1],,4-7[1:1],,8-4[1:2],,,,1-5[1:2],,,,
{1}6h[1:1],,2h[1:1],,8h[1:1],,3,3b,
{4}27,,45,,6,3,45,,27,,45,,6,3,45,,2,7,2,7,18,18,1b/8b,,
{4}4,5,4,5,45,3,25,,4,5,4,5,45,6,47,,3,6,3,6,36,2,15,,3,6,3,6,36,7,48,,
{4}4,5,46,5,4,3,24,3,4,5,46,5,4,3,24,4,5,6,57,6,5,4,25,,
{1}3h[1:1],
{4},,,1b/7b,
{1},,
E
