&title=夏のゆくえ
&artist=Rin'ca×夢乃ゆき
&first=-0.67
&des=柳木 詩梦
&lv_5=13+
&inote_5=(125)
{8},,,,,,,{48},,,,E3,E4,
{2}E5/D5/6xh[2:3],B6/E7,{8}B8/E1,,,{48},,,,E5,E4,
{8}E3/D3,,,
{16}6,7,{2}8xh[1:1]/B2/E3,B4/E5,
{16}1q6[8:1]*p4[8:1],1,,,1x,,,,7/3-7[8:1],2,1h[4:1],,3x,,,,
{16}8/2h[16:3],,,3h[16:3],,,4q8[8:1],,,,2,,2,,8,1,
{16}7h[16:3],,,6h[16:3],,,5p1[8:1],,,,7,,7,,1,8,
{16}2>5[8:1],,1,1,,,8,,7<4[8:1],,8,8,,,1,,
{16}3,4,2,,6,5,7,,2,4,3,,7,5,6,4,
{16}5h[4:1],,,,7,,68,,,1,1,,28,,,,
{16}6/4h[4:1],,,,2,,31,,,8,8,,71,,4,,
{16}5/7h[16:3],,,1,7,,4/2h[16:3],,,8,2q5[1:1],,
{8}2h[4:1],,,E1,E2,E3,,,1,2,
{16}3h[4:1],,,5,5,,4/6h[8:3],,,,7,,8-4[8:1],,,,
{8},,3/5-1[8:1],6,7-3[8:1],8,2,1,
{8}8h[8:2],,6,4/2-6[8:1],,1,8<1[8:5],7,E1/B1,E3/B3,E5/B5,E7/B7,,,3h[4:1],,
{16}7x>3[4:1],,,2x>6[4:1],,,5x<1[4:1],,,,1xv6[16:3],,,,2,,
{16}2x<6[4:1],,,7x<3[4:1],,,4x>8[4:1],,,,8xz4[4:1],,,,6,,
{8}6,7,8,1q5[8:1]/3,,3,2,8p4[8:1]/6,,6,7,8q5[8:1]/2p5[8:1],,,,3,
{16}3/6xV82[16:3],,,2xV46[16:3],,,6x-8q8[8:3],,,,8xh[16:3],,,,2,,
{16}3xV17[16:3],,,7xV53[16:3],,,3x-1pp3[8:2],,,,1xh[16:3],,,,7,,
{8}1-5[8:1],8-4[8:1],1x,8x,,3h[8:1],7h[8:1],1,
{8}27,4q1[8:1]/5p8[8:1],36,4bq1<7-5[8:2]b/5bp8>2-4[8:2]b,,,,,
{8}27,,27,,26,5,2,2h[8:7]/4>5[8:5],,,,,,,,2,
{8}63,,62,,6/1h[8:1],,6/8<1[8:6],6h[8:5],,,,,,6,6,7,
{16}8/2h[16:2],,,1/3h[16:2],,,84,,1/7h[16:2],,,8/6h[16:2],,,25,,
{1}4>5[2:1]/5<4[2:1],
{16}1/2>3-5[16:1],,8,2,,,7h[16:2],,8<7-5[16:1],,1,8,,,2,,
{4}2v5[8:1]/8v5[8:1],2x/8x,4>6[4:1]/6,4x/6x,
{16}5xqq5[16:5]*qq5pp5[8:5]b*qq5[16:5],,8,8,,,1,,2,,3,3,,,2,2,
{16}1xh[8:1]/3h[8:1],,,8h[8:1]/6xh[8:1],,,4x/5,,
{48}2b/7b,E7/E3,B6/B3,B5/B4,E5f,,{8},1p5[8:1]*>4[8:1],,
{16}1b,,,,8<5p1[8:3],,5,5h[8:1],,,4,,3<2[8:5]b,,2x,,
{16}E7,,,,E8,,B1,B2,,,E7,,E6,,E5,,
{16}2q6[8:1]/4x,,,,12,,8,8h[16:3],,,
{8}7<4[8:1]*v2[8:1],68,7x,,3<6[8:1]*p1[4:1],15,3x,,,
{16}6,5,7,,8/4h[8:1],,6,3h[8:1],,5[8:1],2h[8:1],,{48}E6,E7,E8,{16},,,
{16}3,4,2,,1/5h[8:1],,3,6h[8:1],,4,7h[8:1],,{48}E4,E3,E2,{16},
{8}8v5[8:1],1,2/8x,,1v4[8:1],8,7<4[8:1]/1x,,
{8}3v5[8:1],3,2,1b,2<7[8:1]/6>3[8:1],3pp6[8:3]b/7pp2[8:3]b,2b/6b,,,,,
{16}3<7v4[16:5]/7,,,,7,,8,8h[8:1],,,8,,7>6[8:5]b,,6,,
{16}E3,,,,E4,,B5,B6,,,E3,,E2,,E1,,
{16}E8/6-4[8:1],,,,6-8[16:1]/2,,3,3,,,
{8}2>6[8:1]*v5[8:1],31,2x,,7-3[8:1]*qq8[4:1],15,7x,,,
{16}2-6[8:1],3,46,,2>4[8:1],,7,7,2-5[8:1],8,,8,2,,6,,
{16}8-4[8:1],7,64,,8<6[8:1],,3,3,8-5[8:1],4,,4,8,,1h[4:1],,
{16},,6,,38,,5,46,,,
{48}1h[8:1]/2b,E3,B3,B4,E5,,,,,,,,
{48}8h[8:1]/7b,E7,B6,B5,E5,,,,,,,,
{32}7x/1b,2,3,4,5,6,7,8,1/6x,2,3,4,5,6,7,8,1/5x,26,37,84,
{8}15,,2x/E8/B7/B8,2x/E8/B7/B8,
{8}3/6x,,37,37,8h[4:1],3h[8:1],,1>8[8:5]/3h[8:4],
{8},,,,3,4,5,5,14,83,7/2-6[8:1],6-2[8:1]/1,,8,8,3h[4:1]/7,
{16},,5v8[8:1],5,3,,C,,1,1,7,2,8-4[8:1],3,1,,
{16}48,,2-6[16:1],2,,7-4[16:1],7,,,,2,,1-5[8:1],,8,,
{16}51,,7-3[16:1],7,,2-5[16:1],2,,,,6,,7,,8,,
{16}12,,3,4,2>5[8:1],,1,,2/8-4[8:1],,,,{32}8/4,3x,2x,1x,,,,,
{16}87,,6,5,7<4[8:1],,8,,7/1-5[8:1],,,,{32}1/5,6x,7x,8x,,,,,
{16}13,,1h[8:1]/3,,2,8h[8:1],,1,7h[8:1],,8,6h[8:1],,,57,,
{16},,2,4,3,7,5,6,3,4,2,6,5,7,1,8,
{24}1x,2,3,7,6,5,2,3,4,8,7,6,5x/1,2,3,4,5,6,7x/2,3,4,5,6,7,
{16}8/3b,,7,6b/1,,54,5b/4b,,8<1[4:1],8,4z8[8:1]b,4,
