&title=多次元宇宙融合論
&artist=TAKIO feat. つぐ
&first=1.587
&des=twds0x13
&clock_count=6
&lv_5=14+
&inote_1=
&inote_5=(234)
{4}C,8b-6[8:1],5b-8[8:1],1b-5[8:1],4b>1[8:1],
{16}8,7,6,5,4,3,2,1,{4}8/Ch[8:1],
(234){16}2bx/6,,,2/6bx,,,2bx/6,,8,8,8,,7xqq4[2:1]/1x,,,,{12}4,3,2,1,,,E2,E3,E4,E5,E6,E7,,,,
{6}7h[24:1]/1bx,5bx/3h[24:1],8bxh[24:1]/4h[24:1],{4},
{4}6-1[8:1]/2-5[8:1],2/6,{16}8,7,6,5,2,3,
{8}4h[8:1],8h[8:1],2h[8:1],6h[8:1],4,{16}7bx/3,,,7/3bx,,,7bx/3,,
{8}2,4,3,6,5/7,,
{24}8b,1/7,2/6,5s1[4:1]`3z7[4:1]b,4
,,{4},,
{8}2h[8:1],4,,1h[8:1],5,{16}2,3,4V25[4:1],,,,4bx/5,,,,
{8}7h[8:1],6,,8h[8:1],1,{16}7,6,5,,3,,4,,2,,5,,3h[8:1],,
{8}7h[8:1],5,,8h[8:1],4,{16}7,6,5V74[4:1],,,,5bx/4,,,,s
{8}2h[8:1],3,,1h[8:1],8,{16}2,3,4,,6,,7x/8,1,2,3,{2}5x/4,
{4}C,
{8}8,1>4[3:1],,7,,5V31[3:1],6,,7,,8,,7,8V61[2:1],,2,,1V37[2:1],,3,4,,5x,,1/8,,
{8}3<8[8:3]/4,,,8>5[8:3],,5,5qq2[2:1],,,,,,
{16}6,,4,5,4,,,,6,,3,,,,4,3,4,,2,,4,5,6,7,8/4b,,,,
{8}1,8<5[3:1],,2,,4V68[3:1],3,,2,,1,,2,1V38[2:1],,7,,8V61[2:1],,6,5,,4x,,7/2,,
{8}6>1[8:3]/5,,,1<4[8:3],,4,4pp7[2:1],,,,,,
{16}2,,,4,,,3,4,3,,5,,,,3,,5,,4,,7,6,5,4,3/2,,,,1,1,1,1,
{8}1bV38[8:3],,7,8>5[8:3],,6,5v6[4:1],,7,,8v1[4:1],,8,,2,3>8[4:1],,4,,6,5v6[4:1],,4v3[4:1],,4,,
7>2[4:1],,,6V47[8:3],,8,7V15[8:3],,,,,,
{16}6,,3,4,3,,,,8,{6}4,{24},{12}7,5,6,2,4,3,{2}7b,
{8}8V61[8:3],2,,1<4[8:3],,3,4v3[4:1],,2,,1,,1,2,3>8[4:1],,7,6,,4v3[4:1],5v6[4:1],,5,,2,,
1>4[4:1],,,6<1[4:1],,,3<6[4:1],,,8>3[4:1],,,
{8}7b,6,5,2,4,3,6,5,7,1,2,3,
{4}Cf/4b-8[8:1],5b-1[8:1],6b-2[8:1],7b-3[8:1],8b-4[8:1],1b-5[8:1],
{8}2,3,4,8,7,6,4,3,2,7,6,5,3,2,1,5,4/8,3,2/6,1,8/4,7,
{6}2/6bx,2bx/6,{4}2/6bx,{24},{8}1bx/5h[24:1],,1h[24:1]/5bx,
{6}2bx/6h[24:1],3h[24:1]/7bx,{4}3bhx[4:1]/7h[4:1],{13},{15},{387},
{12}6,5,4,1,2,3,7,6,5,2,3,4,8,7,6,3,4,5,
{16}7,6,5,8,7,6,2,3,4,1,2,3,
{8}4x/5x,6x/7x,8x/1x,2x/3x,4bhx[24:1]/5hx[24:1],{2}4hx[24:1]/5bhx[24:1],{8},
{1}5-2-7-4-1-6-3-8-5b[8:35]`4-1-6-3-8-5-2-7-4[8:35],,,,,
{16}4,5,4,5,4,{12}5,4,{9}5,{48},{72},{16}4,,,5,,,{2}4b,
{8}2>5[5:1],,1,8-4[5:1],,8,3>8[5:1],,4x,,5,,6/5,7,8<5[5:1]/4,,8,1-5[5:1],,1,6<1[5:1],,5x,,4,,3V52[8:3],,,2V84[8:3],,7,{2}6,
{8}8,5,6,1,4,3,7,{16}1,8,1,,E3,,4,,{8}E7,5<8[4:1],,,,
{4}B1,2>5[4:1],,B6,7>2[4:1],,B3,4<7[4:1],,1V38[8:6],B7,,8V61[8:6],B5,,1>6[8:6],E8,E7,E6,E5,,
{8}6V47[2:1],,E1,,E2,E3,E4,,
(220)
{16}6b,,1,,4,3,4,3,4,,2,,
(210)
{16}7b,,2,,5,4,5,4,5,,3,,
(200)
{8}8b,3,{12}6,5,6,5,6,3,{3}8b,{18},
{18}8,1,{9}6,5,7,{12}3,4,{3}2b,
{18}1,8,1,{12}7,2,6,3,5,4b,
(234)
{8}7,5,6,,2,4,3,,
{387}Chf[12:1]/E3/E7,B2,B7,B6,B3,,,,,,,,,,,,,,,,{43},,,,,,,,,,,,,,,,,,,
{16}2/6,3/7,4/8,5/1,2/6,3,4,5,
{16}2b>5[8:1]/6b,,,7b,2-6[8:1],,8b,,2,,,,7/5,4,3,2,1bV38[16:3],,,8V62[16:3],,,6,,5bV37[16:3],,,2x,,,2,,1bpp4[8:3],,,8,,,7,,6,,,,7,,5,,6,,,3/4,,,1/2,,,7/8,,,5/6,,,,
{16}7b<4[8:1],,,2b,7-3[8:1],,1b,,7,,,,6x/8,1,2,3,4bV25[16:3],,,5V73[16:3],,,7,,8bV26[16:3],,,3x,,,3,,4bpp3[8:3],,,5,,,6,,7,,,,8,,1,,7,,3,2,1,,5,6,7,,2,3,4,,7,,
{16}2b>5[8:1],,,7b,2-6[8:1],,8b,,2,,,,7/5,4,3,2,1bV38[16:3],,,8V62[16:3],,,6,,5bV37[16:3],,,2x,,,2,,1,,,8/2,,,7/3,,,6/4,,,5,,7,,2,,5,4,5,,3,,6,,1,2,3,,7,6,
{16}5/1bV38V27[8:5],,,8,,,7,,,6,,,5,,5,,
{16}5bV74V63[8:5],,,4,,,3,,,2,,,1,,1,,
{16}1bv8V27-1[16:11],,,8,,,7,,,6,,,5,,5,,
{16}5bv4V63-5[16:11],,,4,,,3,,,2,,,1,,1,,
{8}6bx/2bx,7/3,,7/3,8/4,,1-6[8:1]`5v2[8:1],,,,
{8}5bx/1bx,6/2,,6/2,7/3,,4-7[8:1]`8v3[8:1],,,,
{8}6bx/2bx,5/1,,5/1,4/8,,3v8[8:1]`7-4[8:1],,,,
{12}2,4,3,6,5,7,1,8,1,
{8}3bx/7bx,2/6,,2/6,1/5,,8v3[8:1]`4-7[8:1],,,,
{8}4bx/8bx,3/7,,3/7,2/6,,5v2[8:1]`1-6[8:1],,,,
{8}3bx/7bx,4/89,,4/8,5/1,,6-1[8:1]`2v5[8:1],,,,{16}8x,7,6,5,
{32}Cf/4b,B8,A8,,{8},,{32}6b/Cf,B2,A2,,{8},,{32}8b/Cf,B4,A4,,{8},,{32}2b>2b[16:19]/Cf,B6,6bhx[16:22],,{8},,
{1},,
(180)
{3}Chf[387:1],{12},
{12}6,{16}2b,{24}8x,7,6,{16}5,{32},{96},{16}3,{32},{96},{16}4,{32},{96},
{12}2,3,2,3,2,{24}4x,5,{14}6b,8,7,8,7,8,7,{16}1,,8x,7,6,5,
{64}2x,,,3,,,4,,,5b,,,6,,,7,,,8,,,1,,,{24}2,,4,,3,,,,6,,5,,6x,7,8,,2,,7b,6,5,,3x,2,1,,7x,6,5,,3,,,,
{12}7,5,6,8,7b,1,8,2,1,3,{8}4h[8:1],2,
{32}7,{64},{192},{32}6,{64},{192},{32}5,{64},{192},{32}4,{64},{192},
{32}1,{64},{192},{32}2b,{64},{192},{32}3,{64},{192},{32}4,{64},{192},
{6}8,7/1,{8}2h[8:1],3,,{16}6,5,8b,,,,{12}3,4,1,{8}5,{16}3,4,3,4,3,4,{24}1b,2,3,,5x,6,7,,2x,3,4,,6x,7,8,1,2,{4}3/6,{24},
{16}8bh[16:3],,,2h[16:3],,,6h[16:3],,,8h[16:3],,,{4}4h[4:1],7bh[32:15],,
{32}3bx,4bx/8x,5bx/1x,2x/6bx,3x/7bx,4x/8bx,1bx/5x,2bx/6x,{4},,,{13},
{24}4,,5,,4,,5,,3x,2,1b,,7,,8,,7,,8,,{6}6,{24},
{8}2h[64:13],{16},{64},{8}3,{32},{64},{8}1b,{16}4,2,5,3,6,4,{8}7h[8:1],{8}5,{16},{64},{8}8,{32},{64},
{12}1b,7,2,6,3,5,{8}4h[8:3],,,{16}6,7,{2}8bw4[8:1],{8}1/7,3/5,{16}1,8,2,7,5,6,3,4,{24}1x,2,3,5x,6,7,
{16}1b-5[8:1],,2,,7-4[8:1]/1,,6,5x,7,,2>5[8:1],,1,,2,,
{16}8b-4[8:1],,7,,2-5[8:1]/8,,3,4x,2,,7<4[8:1],,8,,7,,
{16}3b>8[8:1],,2,,3/5-1[8:1],,6,4,5,,3-7[8:1],,2,,3,,
{16}6b<1[8:1],,5,,6/4-8[8:1],,3,5,4,,6-2[8:1],,7,,6,,3b,,,,
{12}7,5,6,8,7,1,8,2,1,
{4}3b-8[8:1],{16}7V51[16:3]/3,,,7,8-4[8:1],,,2,,3,,,
{16}1bqq6[8:3],,2,,3-5[8:1],,,{4}3,{16},{16}7qq4[8:3],,8,,1b,,2,,3-1[8:1]*-7[8:1],,,{4}3,{16},{4}8,
{16}1b>4[8:1],,8,7,6/1-5[8:1],,7,6,5/1,,6,,1,2,3,4,
{16}8b<5[8:1]/5,,7,,2-5[8:1]/8,,3,4,2,,7,,8,7,6,5,
{16}1bv3[8:1]/4,,2,,7-4[8:1]/1,,6,5,7,,2,,1,2,3,4,
{16}8bv6[8:1]/5,,7,,2-5[8:1]/8,,3,4,2,,7,,8,7,6,5,{4}4b/2,
{8}1-5[8:1],1,2-6[8:1],2,3-7[8:1],3,4-8[8:1],4,5-1[8:1],5,{8}Cf,,,
(234)
{8}8,2h[8:1],4,,1h[8:1],5,{16}2,3,4V25[4:1],,,,4b/5,,,,
{8}7h[8:1],6,,8h[8:1],1,{16}7,6,5,,3,,4,,2,,5,,3h[8:1],,
{8}7h[8:1],5,,8h[8:1],4,{16}7,6,5V74[4:1],,,,5b/4,,,,
{8}2h[8:1],3,,1h[8:1],8,{16}2,3,4,,6,,{12}8x,1,2,3,4,5,
{8}7h[8:1],6,,8h[8:1],4,{16}7,6,5V74[4:1],,,,5b/4,,,,
{8}2h[8:1],3,,1h[8:1],8,{16}2,3,4,,6,,5,,7,,4,,6h[8:1],,
{8}2h[8:1],4,,1h[8:1],5,{16}2,3,4V25[4:1],,,,4b/5,,,,
{8}7h[8:1],6,,8h[8:1],1,{16}7,6,5,,3,,2x/1-5[16:1],8,7,6,{387}E1,B8,Chf[387:1]/5bh[16:1],B4,E5,
