&title=愛と煩悩と輪廻と常識の極彩世界
&artist=sound piercer feat. Ritsu
&first=0.1
&des=悲喜離合の人生
&lv_5=14
&inote_5=(274){4},,,,{1}6<3[1:5],
,,{8}5,
{4},,,{8}4h[8:11],
{1},{4},,,4pp8[2:3],
{1},,{8}6/4,
6/4>2[8:1],,5,{4},{8}1/8,7,
,5/3,{2},{8}5/7,5/7>1[8:1],
,3,{4},{8}3/4,5,,6<1[4:1]/2>5[4:1],
{4},,{8},8-4[8:1],5,8,
,3,{4}2-5[8:1],{8}6,{4},{8}7/5,
{4}8-4[4:1],3,,{8},5/3,
{4}7/1,6/4,{8},4/5,{4}2-5[8:1]/8-5[8:1],
{8}2/8,{4},{8}6h[8:3]/4qq8[2:1],{2},{4}5b,
{8}1,1,6,3,7,4,
6,6,3,5,2,2,6,4,
8,8,2,2,4,4,6,6,
{2}8h[8:5],5-1[4:1],
8<4[2:1],4>8[2:1],
8<4[2:1],4>8[2:1],
8<2[4:3],4h[4:3],
{4},8w4[8:1],{2}8b,
{4}5/3,{8}1,8,{4}2/7,{8}6,5,
{4}8/4,{8}3,4,{2}1/6<1[4:1],
{8}2,2,,4,{4}4,{8}5,5,
,7,{4}7,2/1,3/4pp4[4:3]*qq4[4:3],
{1},{8}4/5,
8,2,6,1,7,{4}4-8[8:1],
8b,6,{8}7-4[8:1],8,{4}7,
{8}2-5[8:1],1,{4}2,{8}7,8,6,5>7[8:7],
{4},8,1,4,
{8}3,3,{4}7,{8}8,2,6,4,
5b,2,5,8,5,3,5,7,
5,4,5,6,5,3,5,8,
4,3,2,1,{16}8,7,6,5,4,3,2,1,
{8}8/4p6[8:3],4,{4},{2}5,
{4}6h[8:1]/5h[8:1],8h[8:1]/1h[8:1],2h[8:1]/4h[8:1],5h[8:1]/7h[8:1],
3h[8:1]/1h[8:1],7h[8:1]/6h[8:1],{2}5b/4b,
{8}6/4,6h[4:1],,5,7,1,6,2,
4/3,4h[4:1],,2,5,1,7,2,
3/6h[4:1],{4},{8}5/4h[8:3],{4},8,
{8}1/7h[4:1],1,,5/6,,2/8,{4}8/2,
{8}3/4,3h[4:1],,4,2,8,3,7,
5/6,5h[4:1],,7,4,8,2,7,
6/3,3,4,4h[4:1],,5,4,3,
{4}6/2h[4:1],{8}5,5/3h[4:1],{16}6,7,{8}8,2,2-5[8:1],
,2b/8b,{4},{16}7,6,{8}5,1>4[4:1],1,
,6,6,5,7,1,8,3,
4h[4:1],{4},{16}1,2,{8}3,8<5[4:1],{4}8,
{8}3,3,4,4,1,6,5,7,
2,2,4,4,5,5,7,7,
8,8,1,1,2,2,4,4,
6,6-3[8:1],,2-6[8:1],{4},4,
5<8[4:1],8-4[4:1],4>1[4:1],1,
{1}8b<1[8:11],
{8}7h[2:1],{2},{8}5<5[4:7],{4},{8},1h[2:3],
{1},{4},,,2,
{8}4,5,{4}6,7,
{8}3,4,5,4,5,6,{4}7,
8-3[8:1],4,4-7[8:1],8,
1<4[8:3],5,{8},8,{4},{8}2,
6,4,7,3,3,1,1,
3,4,2,6,1,1,7,7,
5,6,4,7,3,3,,1,
3,4,2,5,{16}1,8,7,6,5,4,{8}3/7,
{4},{24}1b/7b,6,5,4,{12},{8}1-5[8:1],4,{4}1,
7/3,{8}8,2,{4}1-5[8:1],1/3,
{16}1,2,3,4,5/1,8,7,6,5/1,2,3,4,5/1,8,7,6,
{8}5/1,1w5[8:3],{4},,,6-3[8:1],
2/6,8-3[8:1],8/7,
4-1[8:1],4/3,2<7[4:1],2/7<4[4:1],
4,8,7-4[8:1],7/8,
3,{8}2-6[8:1],1,{4}2/8-5[8:1],8,
4-8[8:1],5>1[4:1],1<6[4:1],5,
4-8[8:1],5>1[4:1],1<6[4:1],5,
1>4[4:1],4-8[4:1],8<5[4:1],5-1[4:1],
1>4[4:1],4-8[4:1],,{8},1/7<3[8:3],
{4},3>8[4:1],8-4[4:1],4<7[4:1],
{2}7>2[4:1],{12}3,4,5,6,{4},{24},8b/1b,
7,6,{4}5,{24}2b/1b,3,4,5,{16},,,{48},{24}8b/1b,7,6,
{4}5h[1:1],{16}4,3,2,1,8,7,{8}6,{16}4,3,2,1,
{4}8-3[4:1],{8}4,4h[4:1],{4},2/1,
{8}8,1,7,5-1[4:1],,8,{4}8h[4:1],
{8}2,4,3,3,7,5,6,6,
4,5,3,6,2,7,1/8,1/8h[8:3],
{4},{8}2b-5[8:1],1,2,8b-4[8:1],3,8,
1b-5[8:1],6,1,7b-4[8:1],8,7,{4}1>4[4:1],
,{8}8b-4[8:1],5,8,2b-5[8:1],1,2,
7b-2[8:1],8,7,{16}3b,4,5,6,7,8,1,2,{8}7q1[8:7]/3q5[8:7],
{1},{2},7/2,
{8}5/4,5,4,5,3,4,5,6/3,
,2/4,,7/5,,3/1,,7/8,
,4,5,5,4,3,6,5,
3,3,4,4,5,5,6,6,
{4}2/7,{8}5,4,7,1,8,2,
4,3/5,,7/8,,6/5,,2/1,
,5,4,5,6,3,4,5,
{1}2h[4:3]/6<4[2:1],
{4}4/1>4[4:1],4q1[4:1],1>4[4:1],4q1[4:1],
1>4[4:1],4q1[4:1],1>4[4:1],4,
8<5[4:1],5p8[4:1],8<5[4:1],5p8[4:1],
8<5[4:1],5,3,7/1,
{8}6b/2h[8:1],6,2b/6h[8:1],2,3b/5b,3b/5b,,3/6b,
4,5,2b/6,1,8,3h[4:1]/7b-4[8:1],{4},{8}1-5[8:1],
1,7-3[8:1],7,2-6[8:1],2,8-3[8:1],8,
{1}4bw8[2:1],
{8}4,4,5,5,,3/6,4,5,
3,4h[8:1],2,2,6,5h[8:1],7,7,
{4}3h[8:1]/6h[8:1],6h[8:1]/3h[8:1],{8}5,2h[8:1],4,4,
{4}1h[4:3],7,3,6,
3/4h[4:1],{8}1-6[8:1],1,{4}4,{8}8-4[8:1],8,
{4}5,{8}2,6,{2}3h[4:1]/7h[4:1],
{8}6/4,3,7,1,5/2,6,1,8,
{2}7b/3b,{16}3,4,5,6,7,8,1,2,
{8}3h[2:1]/7b>6[4:5],{4},,,{8}1h[8:7],
{1},{8}5h[2:1]/4b>5[2:3],
{4},,,{8}8h[8:7],
{1},{2}2/4,
7/5,
1/8,6/3,
{4},5/4,{8}4-8[8:1],4,{4}5,
{2}7<2[8:3],8,
{4}7/1,5/3,{8}1,7,4,6<1[4:1],
,1>4[4:1],,4,{4},{8}1-5[4:1],1,
{4}5<8[4:1],8-4[4:1],4>1[4:1],1-5[4:1],
{2}4h[4:1],{4}6/3,{8}8/1,8/1,
,{16}7,6,{4}3h[2:1]/5>8[8:3],,,,7/3V51[8:3],
5,8,
{8}6b/2b,{4},{8}7b/4b,{4},5b/1b-5[8:1],
{8},6>8[2:1],{4},{8}3,{4},{8}5h[2:1],
{4},{8},4<2[8:7],{2},{4}3,
3,4,4,
6/5-2[8:1],7,4-7[8:1],{8}3,{16}2,1,
{4}8-3[8:1],{8}6,6-1[8:1],{4},4,
2b-5[8:1],6,7b-4[8:1],3,
1b-5[8:1],6,8b-4[8:1],3,
{2}2b-5[8:1]/6bv1[8:1],7b-4[8:1]/3bv8[8:1],
2b-5[8:1]/1b-6[8:1],8h[4:1]/7b-4[8:1],
{16}8,1,2,3,4/8,7,6,5,4/8,1,2,3,4/8,7,6,5,
{8}4/8,8w4[8:3],{4},,,7/2-4[8:1],
5/2-6[8:1],{8}2/8-4[8:1],8,1-5[8:1],1,
7-3[8:1],7,2-5[8:1],2,{4}8,{8}8,1,
{4}2/7-5[8:1],4/7-3[8:1],{8}7/1-5[8:1],1,8-4[8:1],8,
2-6[8:1],2,7-4[8:1],7,{4}1,{8}1,1,
{4}1bw5[8:1]*w5[8:1],1b,1bw5[8:1],1b,
1bw5[8:1]*w5[8:1],1b,1b,{12}7,6,5,
{8}1b,3,2,8b,6,7,2b,4,
3,{24}6b,7,8,{4}1h[4:1],{24}5b,4,3,2,{12},{24}8b,7,6,5,{12},{24}3b,
4,5,6,7,8,1,2,3,6b,5,4,3-6[8:1],2,1,8,7,6,{4}3b/5bw1[4:3]*-1[4:3],
{1},{32}8b/1b,
7b/2bqq7[32:135]*qq7[32:135],3b/6bqq3[16:67],5b/4b,{1},,,,{4},,,{8},{1}3b/7b,
