&title=祭炎
&artist=GET IN THE RING
&first=-0.3
&des=HEHE122
&lv_5=13+
&inote_5=(177)
{4}
,
5<8[1:1]/4,,3,,2,,1,,
4>1[1:1]/5,,6,,7,,8,8,
6<3[1:1]/5h[4:1],,5,,4h[4:1],,4,4,
3>6[1:1]/4h[4:1],,4,,5h[4:1],,5,,
{8}6-8[8:1]/5,4,,,2-4[8:1]/1,8,,,
6-8[8:1]/1,2,,,1-5[8:1]/2-5[8:1],8,1b/2b,,
7-5[8:1]/8,1,,,3-1[8:1]/4,5,,,
6-4[8:1]/8,1,,,2-8[8:1]/3-8[8:1],4,2b/3b,,
7-4[8:1],6/8,,,3-6[8:1],2/4,,,
8-5[8:1],7/1,,,8-3[8:1]/1-3[8:1],7,8b/1b,
,5h[8:1]/6-1[8:1],,,,4h[8:1]/3-8[8:1],,,,
1-5[8:1]/7h[8:1],,,,8-4[8:1],{16}7/1,,8b,,,,,,{8},,,,,
{4}4>8[1:1],4,{8}5,6,,7,,{4}7<2[4:5],,{8},,8,7,6,{4},,,1-5[2:1],1,,,
{8}1<7[4:1],,7-3[4:1],,6,6<1[4:1],,1>5[4:1],,5w1[1:1],,,,,
,,,,,,,,,7>2[8:1],2v4[4:1],4b,,,,,,,
8-4[8:1],,7-3[8:1],,6-2[8:1],6,4h[8:1],,,1b>8[1:1],,,,,,1,2,3h[16:6],,,,,,,
{4}1-6-3-1[4:7]/5-2-7-5[4:7],,,,,,,,,Ch[4:5],,,,,,3/7
,6-1[8:1]/2-5[8:1],6b/2b,7-4[8:1]/3,7/3-8[8:1],3-5[8:1]/6,3/7,,
6-1[8:1]/4,6/4,3-8[8:1]/5,3/5,6-8[8:1]/5,4/6-2[8:1],6/3,,
3h[4:1]/7h[4:1],,
7-5[8:1]/2,7-1[8:1]/4,7-5[8:1]/2,7-1[8:1]/4,7/2,,2,6,
2-4[8:1]/7,2-8[8:1]/5,2-4[8:1]/7,2w6[8:1]/7,2b,,
1-6[8:1]/8-6[8:1],8-3[8:1]/1-3[8:1],8b/1b,
5-7[8:1],5/8-2[8:1],8/5-7[8:1],5/8-3[8:1],8-5[8:1],
8-2[8:1],8-5[8:1],8-3[8:1],8-6[8:1],8-4[8:1],8-5[8:1],8b,,
3-5[8:1],6-4[8:1],2-5[8:1],7-4[8:1],1-5[8:1],8,8bq5[2:1]*>5[2:1],,,,Ch[4:3]/5,
6,7,8,4,3,2,1,Ch[4:3]/8,7,6,5,1,2,3,4-2[8:1],4,8-6[8:1],8,3-1[8:1],3,7-5[8:1],7,
{8}3,6,4,5,3,5-7[8:1],3,5b,4-2[8:1],6,4b,5-7[8:1],3,5b,4-2[8:1],6,4bw8[8:1],6,
{8}4,,2,3,6,2,2,7,1,1,2,3,4,5,6,7,
4,5,6,6,3,7,7,2,8,8,7,6,5,4,3,2,
3,4,3,5,6,5,2,1,2,8,7,8,1,6,2,5,
4,4,8,8,3,3,7,7,2,2,6,6,1,1,5,5,
{16}18,,,,2,,,,3,,3,,45,,5,,
4h[8:1],,,,3h[8:1],,5,,2,,2,,18,,,,
1,,8,,27,,7,,3,,36,,4,,5,,
5h[8:1]/4,,4,,6h[8:1]/3,,3,,28,,71,,28,,7,,
28,,8,,27,,2,,36,,36,,45,,4,,
7h[8:1]/8,,8,,6h[8:1]/1,,1,,6,,52,,52,,4,,
12,,,,38,,3,,47,,47,,5h[8:1]/6,,6,,
1h[8:1]/2,,3,,4h[8:1]/5,,6,,78,,16,2,38,7,6,5,
3b/4b,,,,8h[8:1],,,,7,,65,,4h[8:1]/3,,2,,
1h[8:1],,,,8h[8:1],,7,,6,,5,,4h[8:1]/3,,,,
1x,,B1,,6x,,B6,,2x,,B2,,7x,,B7,,
1h[8:1]/8,,7,6,5h[16:3]/4,3,2,1,6,7,8,1,3bx/2bx,,,,
45,,,,4,,,,7,,43,,5h[8:1]/2,,1,,
8h[8:1]/7,,,,6h[8:1],,5,,4,,3,,12,,,,
78,,6,,5/4x,3x,2x,,6,,3,,4h[8:1]/5x,6x,7x,,
3h[8:1]/8,,2,,6h[8:1]/1,,7,,1/2,,4/5,,7bx/8bx,,,,1-3-8-4-7-5[2:14],,,,,,,,
{2},,,,,,,,,,,,,,,B1,,B8,,B7,,B6,,B5,,B4,,B3/B4/B2/A5/A1/D2/A2/E5/E3/E4/A3/A4/D4/E2/D3/D5,,,
{4}2/6,3-8[8:1]/7-4[8:1],3b/7b,1>4[8:1]/5,7/1<6[8:1],1-5[8:1]/3,1b/5,,
6-8[8:1]/3,6/3-1[8:1],6-8[8:1]/3,3-5[8:1]/6,6-2[8:1]/3,3-7[8:1]/6<8[8:1],6/3,,
2h[4:1]/6h[4:1],,
8-5[8:1]/4,8-3[8:1]/2,8-5[8:1]/6,8-3[8:1]/2,8/6,,7,3,
1-4[8:1]/5,1-6[8:1]/7,1-4[8:1]/3,1w5[8:1]/7,1b,,
2-8[8:1]/6-4[8:1],2-6[8:1]/6-2[8:1],2b/6b,
{8}1-5[8:1],,5/1<6[8:1],,3/1>3[8:1],,6/1<6[8:1],,1>3[8:1],,
{4}1-7[8:1],1-4[8:1],1-6[8:1],1-3[8:1],1-5[8:1],1-4[8:1],1b,,
1b-5[8:1],2b-6[8:1],3b-7[8:1],4b-8[8:1],5bw1[8:1],5b,2b>1[2:1]/8b<1[2:1],,,,Ch[1:1]f,
,,,,,7-4[8:1]/3-8[8:1],7/3,1bw5[8:1],1,6-1[8:1]/2-5[8:1],6/2,8bw4[8:1],8<1[8:3],8b,,B1/B2/B3/B4/B5/B6/B7/B8/Cf,
