&title=Crush the Dystopia
&artist=MintJam/青木征洋
&first=-0.55
&des=Lacomxio
&lv_5=14+
&inote_5=(205){4},,,,,,,,5/4h[8:5],
,,5h[8:5]/B4,
,,{2}6h[8:5]/B5,
{4},7h[8:5]/B6,,,1h[8:5]/B8,
,,2h[8:5]/B1,
,,{2}3p8[1:1],
{4},E6h[4:3],,,1h[8:5],
,,2h[8:5]/B1,
,,{2}3h[8:5]/B2,
{4},5h[8:5]/B4,,,6h[8:5]/B5,
,,7>4[4:1],
{16},,,,,,,,6,4,5,4,5,3,6,4,
5,4,5,3,8,7,6,5,{4}4/C,{16}2,4,3,5,
{4}6<1[8:1],{8}4,4,,2<6[8:1],3,3,
{4}4h[4:1],6h[4:1],8>3[8:1]
,{8}5,5,
,4>8[8:1],5,6,{4}7h[4:1],1,
{8}2/5,2/5,3,6/4h[4:1],,7,6/5,6/5,
4,8,{4}1,5/2v5>8[8:3],{8}2,8,
,7,6,5,4/2,{16}3,5,4,6,5,7,
{4}1-3<4[2:1],2,{2}4p6[2:1],
6>8[2:1],{8}5xh[2:1],{16},,,,A7,D7,
{2}A6,{8}6/4,6/4,3,5/2,
1<6[8:3],,,6>3[8:3],,,{4}3-1[4:1],
{8},1s5[4:1],,,7b,7,,6,
6,6,5,4,5/3,7,6/4,{16}2,1,
{4}8<4[8:1],{8}3,3-8[8:1],,5,,6,
{4}7/1h[4:1],5h[4:1],3<6[8:1],{8}8,8,
,7,,5,{4}6/4,{8}5/3,2,
{4}1>5[8:1],{8}7,7-4[8:1],,4,{4}3h[4:1],
1<4[4:1],4p6[4:1],3,{8}1,1h[8:3],
,,,2,3/5,3/5,6,7/4,
{4}8<6[8:1],2h[4:1],{16}D5h[4:3],,,A5h[16:9],,,{8}D6h[8:3],
{16},A1h[16:3],,,,D2,A2,D3,{8}3x>8[4:1],{16},,,,6,5,
{4}4,3,1h[4:1],8<3[2:1],
{8}5>2[8:3],,,2<8[8:3],,,{4}8<4[4:1],
{16}4,3,{8}2,,,1h[2:1],,,3<7[8:1],
,,,1,{16}2,4,3,5,4,6,4,6,
{8}7/3,{32}8x,7,6,5,{8}4,3,2/5,6,7/3,5,
8/2,7,{16}1,6,2,6,{24}3>8[8:1],4,,,,,{8}7,6,
5,2,{16}3,5,4,6,3,5,2,6,1,7,2,6,
{24}2,3,4,5,6,7,8,1,2,3b/7h[4:1],,,,,,{8}5,{4}8/3,
6/1,{16}2,5,2,5,3,4,3,5,4,6,3,7,
2,8,1,7,2,3,8,7,3,4,7,6,{24}5,4,3,2,1,8,
{4}7bh[4:3]/2x>5[8:1],,,8<4[8:1],
,2/6,{24}7/8,6,5,4,,,{8}1,{24}2/8,3,4,
{8}5,6,7/4,3,6,{16}2,5,3,6,4,7,
5,6,7,8,1,2,{8}7/3h[8:3],,,{4}1-5[8:1],
1,1h[4:1],{16}6,5,7,4,6,5,8,3,
{24}7b,6,5,3b,2,1,6,2,6,2,6,2,{16}7x,1x,{32}A2,D3,A3,D4,A4,D5,A5,D6,A6,D7,{16}A7,
{4}1,2,3,{8}4,{16}A6,D7,
{4}5/A7,6,7,8,
1h[8:1],2h[8:1],3h[8:1],{8}4h[8:1],6,
{4}5h[8:1],6h[8:1],7h[8:1],8h[8:1],
1>4[4:1],{8}6,6,,5,{4}6,
8<5[4:1],{8}4,3,,2,2,1,
{4}8/7h[8:1],1/7h[8:1],{8}2/7h[8:1],2,3/7h[8:1],3,
4/6,6,5/7,5,{4}4/8-4[8:1],8,
{16}3,4,3,4,{8}2,{16}6,5,6,5,{8}7,{16}1,8,1,8,
{4}7b/2b,4-1[8:1]/5-8[8:1],{8},,,,5/2,
3,{16}6,5,{8}6,4/7,{16}2-4[8:1],8,1,8,{8}2,
6,6,{16}4,5,{8}3,2/6,{16}7-5[8:1],1,8,1,{8}7,
2,2,{16}5,5,{8}3,4/7,{16}6,4,5,2,{8}8,
6/4,6,{16}3,3,{8}5,6/2,{16}3,5,4,7,{8}1-5[8:1],
5-2[8:1]*-8[8:1],1,,,7/1,6,5/3,2,
1,{16}6,5,{8}6,7/4,8,{16}3,4,{8}3,{16}6,5,
{8}7-3[8:1],7,8-4[8:1],8,1-5[8:1],1,{16}2,3,{8}4,
{16}7,5,6,4,5,3,4,2,{4}3-7[8:1],3/1,
{8}4/8,6,{16}3,4,{8}3,5/2,{16}7-5[8:1],1,8,1,{8}7,
3,3,{16}5,4,{8}6,7/3,{16}2-4[8:1],8,1,8,{8}2,
7,7,{16}4,4,{8}6,{16}4,5,{8}3,{4}8/2-6[8:1],
2/1-5[8:1],1/8-4[8:1],8/7-3[8:1],7,
{8}5/2,5/2,{4}7/1-5[8:1],1/6-2[8:1],{8}6,5>1[8:1],
1qq4[8:3],,,5,,6<1[8:1],,,4,
4,{4}2/8-4[8:1],8/3-7[8:1],{8}3,4<8[8:1],
1h[4:1],,,2/8,,3<6[8:1]/7>2[8:1],,,,,,5/2,
,,{4}7/4,
{8},,1/2,3/7,5/4,6/2,{32}7/E3,B3,{16}B4,{8}7,
7,{32}2/E7,B6,{16}B5,{8}2,2,{16}6,4,5,3,5,4,{8}6,
{12}3/7,4,5,6/3,{24},,,,,,,{8}2/1,,,8/7,
6,5,4/7,3/8-4[8:1],4-8[8:1],8,2,
{16}1,2,3,4,{8}5,{16}8,7,{8}6,{16}1,2,5,3,6,4,
{12}7,7,1,8,8,2,{6}1h[6:1],3h[6:1],5h[6:1],
{8}7>3[16:3],{16},,,,4,5,{8}6,7,8/3,4,
{16}7,5,7,5,{8}6,4/5,{16}3,4,2,2,6,4,7,7,
{24}3,2,1,7,6,5,{16}2,6,2,6,4,8,3,7,{8}2b/6,5b/1,
{16}4x,3,5,3,{4}6<8[8:1],{16}2,3,{8}4,,8,
{16}5b,6,4,6,{8}3,{16}5b,4,6,4,{8}7,{16}3b,6,2,6,
{8}1,{16}7b,2,8<3[8:1],2,{8}1,,,1,1,
{16}2/5,3/6,4/7,5/8,6,7,8,1,2,6,3,5,4,4,4,4,
{1}4b>5<4b[2:7],
,E5h[1:1],
{8},,,,,,,,5/3,
5,5,5,6/2,6,6,6,
7/4,4,4,4,2/8,2,2,2,
E4h[4:1],{24}8,7,6,{8}5,E5h[4:1],{24}8,1,2,3,,,{4}C,
{16}4,8,4,8,3,7,3,7,2,4,3,5,4,6,5,7,
{8}8/3,2,{16}3,4,{8}3,5/2,{16}6-4[8:1],1,8,1,{8}6,
2,2,{16}6,5,{8}7,8/4,{16}3-5[8:1],8,1,8,{8}3,
7,7,{16}5,5,{8}6,3/8,{16}2,2,5,3,{8}4,
6/2-5[8:1],1,2/6-2[8:1],7,3>6[8:1],4,{4}3/6,
{8}5<7[8:1],4,{16}3,2,{8}1,{16}8/2x-5[8:1],3,{8}4,{16}1,8,{8}7,
6/4x,{16}2,5,2,4,{8}1V35[8:1],{24},,,5,6,7,{4}8,
{8}2/1,3/7,5/4,7/1,{16}2-5[8:1],3,{8}4,{16}8-4[8:1],7,{8}6,
8,2,3/5,4/6,7,8,1,2/7,
3/5,4,7/5,6,7/1,8,1/3,2,
5/3,5/3,4/6,4/6,{16}3,2,1,8,5,6,7,8,
{8}2/1,3/5,6/4,5/7h[4:1],,1,8/2,7/3,
{24}6,5,4,3,,,2,3,4,5,,,8,7,6,5,{48},,,,{16}2,1,2,1,
{12}3,{24}5,4,{12}5,2,{24}7,1,{12}7,5,{24}6,4,{12}6,2,{24}4,3,{12}4,
{16}2,5,2,5,3,6,3,6,4,7,4,7,3,6,2,5,
{4}1h[4:1],{24}7,6,5,8,7,6,{4}4h[4:1],{24}1,2,3,5,6,7,
{16}2,1,3,8,4,7,5,6,4,5,3,4,2,5,1,6,
{2}8<4[8:1],{4}6/2,{8}1/8,7,
6/4,5,2/4,3,2/7,1,8/6,5,
{24}1,2,3,4,5,6,{16}7/2,3,6,4,3,5,4,6,{8}7/2,1,
8/7-3[8:1],6,{4}7/8h[4:1],{24}4x,5/1,6/2,3b-8[8:1]/7b-4[8:1],,,,,,,,,,,,{8}2/6,
4,7/3,6,7/1,5,8/2,
{4}1/3<5[8:1],{16}8,7,{8}6<8[8:1],{16},,4,3,{4}2,
{8}1/8,2,1/8,7,6/4,5/3,4/2,1/5,
6-8[8:1],2,{24}1,2,3,4,,,{8}2-4[8:1],1,{24}8,7,6,5,{48},,,,{16}3,
7,3,7,3,7,3,7,2,8,2,7,2,6,2,5,
1,4,2,5,3,6,4,7,{24}5x,4,3,8x,7,6,4x,3,2,8x,7,6,
{1}5h[1:1]/1h[2:3],
{4},,,C/B7/E7/B6/B2/E3/B3,
{24}1b/7b,2/6,3/5,4h,,,,,,2b/8b,3/7,4/6,{4}5h,{8}4/6,6/4,
{16}3,5,2,6,3,5,1,7,{24}1b,2,3,4/7b,6,5,4,3,2,{96}1b,,,2/8,,,{32}3/7,4/6,
{1}5b-3-6-2-7-1b[4:7],
E
