&title=unisonote
&artist=onoken
&first=0
&des=おにねこ
&wholebpm=168
&lv_5=14
&inote_5=(168)
{1},
{4}8/4qq8[4:6],,,7-4[8:3],
,,,5qq2[4:5],6pp1[4:6],,,,,,,,
{8}
2-5[8:5],3,,,2,,,1h[8:9],,,8,,,7,,,
6-2[8:5],5,,,6,,,7h[8:6],,,8,,,1p8[8:4],,,
5h[8:6],,,,1h[8:8],,,,2,,3,,4h[8:3],,
8,1,2h[8:7]/4,,,,5,,6,7,8/2>6[8:3],,,,7>2[16:5],,,,
3h[8:4],,,,7h[4:4],,,,8,,1,,
2h[8:3],,
3,4,5>2[16:5]/2,,,,7h[8:3],,6,5,4<3[8:3]/7,,,,4h[8:5],,,,
5,5,6-3[8:4]/4,7h[8:14],,,,,,,,,,,,,
4,4,5/3s7[8:8],2,1h[8:2],,,,3h[8:2],,,,4h[8:5],,,,
5,5,46,7h[8:1],4,3-7[8:2]/5,2,,1,,2h[8:2],,4,35,4/6h[8:3],,
3,3,52,1h[8:1],6,7-3[8:2]/4,8,,4,,1h[8:1],,15,26,3V52[16:4]/7V58[16:4],,,,,,
3h[8:4]/7h[8:2],,,,{16}7-3[8:1],,,3-6[8:1],,,4-8[8:1],,
{8},,7,7,3/5,8,8h[8:1],,
2h[8:2]/6h[8:4],,,,{16}2-5[8:1],,,5-1[8:1],,,7-4[8:1],,
{16},,,,8,1,2,3,4-8[8:1],5,6,7,4,,,,6-2[8:1]*-1[8:1],,,,6,,,,3,3,5,5,4,4,6,6,,,
1,,2h[8:4]/1,8,7,6,5-1[8:1],,,,5,,,,
{8}4h[8:1]/8,7,6h[8:1]/2,3,4h[8:1]/7,6,5h[8:2]/2,8-3[8:1],,5b/8b-4[8:1],,6b/8b-5[8:1],,{16}7b/8b,,,,4,5,
{8}
1>4[16:2],,1,6v1[8:1],2>5[8:1],6,2,,7/3<6[16:2],,3,7-1[8:1],5>2[8:1],7,5,,
8/4>1[16:2],,4,7v4[8:1],3>8[8:1],7,3,,5/1>4[16:2],,1,6,{16}2-6[8:1],1,3,,25,,,,
{8}
8<5[16:2],,8/3-1[8:1],,7<4[8:1]/3,,7/2-8[8:1],,6>3[16:2]/2,,1-5[8:1]/6,,4<7[8:1],,3,2,
1>4[16:2],,8/1,,6<1[8:1],5,4-7[8:1]/6,,
4b/3,2-5[8:1],2,2b/5b,6-1[8:1],6,6b/1b,,
{16}
23,,,,3,4,2,1,3,,3h[8:2],,,,1-4[16:2],,,,7>2[8:1],,,,6-2[8:1],,,,4,,4h[8:3],,,,
{8}5,6,74,3,2,15,6,7-4[16:2]/3,,4V25[16:3],,1-5[16:2],,1,6,,
67,,8v5[16:2],17,,2<7[8:1],,3-7[8:1],,4-8[8:1],,5h[8:2],,2,5/2h[8:3],,
5,5,4h[8:1]/7,6,1/5h[8:1],2,3h[8:3]/8,7,
6,6,4h[8:1]/8,6,5h[8:1]/1,3,4h[8:1]/8,6,
15,15,26,37,48,48,37,26,
{16}
1,5,2,6,3,7,4,8,
{32}5,6,7,8,1,2,3,4,5,6,7,8-5[4:8],1-4[32:63],2,3,4,
{4},,,,,,,,,,,,,,,,
{8}3q6[8:4],,,,7-4[16:3],,,1q8[16:5],,,,5,5-1[16:3],,
2,3,4,5p2[8:3],,,8-5[16:3],,,4,4V28[8:2],,,7v4[16:3],6,6,,,
3-7[8:1],7,3-8[8:1],6,3V17[16:3],5,3,4,
5-1[8:1],1,5-8[8:1],2,5V71[16:3],3,5,4,
{16}3,4,2,5,1,6,8,7,1,8,2,7,3,6,{24}4,5,4,{4}6V48[16:4]/3V51[16:4],,,{16}26,37,48,51,
{8}
2<7[8:1]/6,,2pp5[8:3]/3,3,,6,6<1[8:1],,
6>3[8:1],,6z2[16:4],2,,3,4h[8:2],,6>3[16:3],4>1[16:3],2<7[16:3],8,,{16}4,3,2,18,7,6,5-8[8:1]/1-4[8:1],,,,15,,,,3-8[8:1]/7-4[8:1],,,,37,,,,
{8}
7<4[8:1]/3,,7V15[8:2]/8,1,,2,3<6[8:1],,
3qq5[8:3]/7,,5,6,,7,8-4[16:2]/4,,8-5[8:1],3-8[8:1],8,3,,{16}5,6,7,18,2,3,
{12}4h[12:1],6,5,7h[12:1],1,8,2h[12:1],4,3,6h[12:1],5,7,{32}1,2,3,4,5,6,7,8,{16}1b/5b-1[8:1],,,,3-7[8:1]/5,,3,,,,8,,
8-4[8:1],,,,2-5[8:1]/8-5[8:1],,,,82,,,,7/3-7[8:1],,46,,5-1[8:1]/3,,,,6-3[8:1]/5,,,,62,,2-7[8:1],,,,2-5[8:1],,6-2[16:2],,2,,6,,3,,4-1[8:1]/8-5[8:1],37,26,,84,,,,
{8}2-5[8:1]/7,3,2/7-4[8:1],6,3-8[8:1]/7,2,3/6-1[8:1],7,
4-8[8:1]/6,4,4/5-1[8:1],5,
3-7[8:1]/5,3,3/8b,,
1-3[8:1],1,1-4[8:1]/8,8,1-5[8:1]/7,7,16,6,
7-5[8:1],7,7-4[8:1]/8,8,7-3[8:1]/1,1,72,2,
26,63,64,65,67,68,61,62,
{16}
3,7,4,8,5,1,4,8,3,7,2,6,
{32}1,8,7,6,5,84,73,62,
{4}1q5[8:1]/5q1[8:1],1bp3[8:23]/5bp7[8:23],,
