&title=El Condor Pasa (Phigros Edit)
&artist=Plastic Fruits
&first=2.1
&des=Tachi.mia
&lv_5=14
&inote_5=(150.01)
{16}54,3,4,3,,2,1,2,,4,5,4h[16:1],,,
8,7,6,3,4,2,,6,5,7,,1,2,7h[16:1],,,
1,2,3,4/7,1,8,,3,5,4,,1,2,8,8,,
3b,,
7,4,5,4,2,3,2,5,1,8,1,6,6v3[8:1],,,,6,,
{4}2h[4:1],1h[4:1],7h[4:1],6h[4:1],3h[4:1],5h[4:1],
{8}8,8w4[8:1],,8,,
2h[16:1],1h[16:1],5h[16:1],6h[16:1],2h[16:1],4h[16:1],3-7[8:1],,,
{16}5,4w8[0.9##0.2],,,,,,,,,4b,,,,
3h[16:3]/7<4[8:1],,,,7,,3h[4:1],,8,,2,,
6,6h[16:3]/1>4[8:1],,,,1,,5h[4:1],7,7>3[8:1],,,,7,,,
5,5h[16:3]/1v4[8:1],,,,1,,6h[4:1],2,2,,3,3,,
1b,,
8,8h[16:3]/2-6[8:1],,3-5[8:1],,2-8[8:1],,3,,2,,3,3-6[8:1]*-8[8:1],,,,3,,,,
4h[16:3],,6,,7,4h[4:1],8,,1,1,,
7,6,5h[16:3],,3,,2,,1,7h[4:1],2,,3,,
4,3,2,1,5,5h[16:3],,2,,3,,1,4h[4:1],2,,8z4[4:1],,1,,
8/2z6[4:1],,,,2,,,,8,1,2,3,4,2,5,3,1b,,,,
1,1,1,,3,3,3,,2,2,2,,1,1,1,,2,2,2,,3,3,3,,4,4,4,,
{32}8,7,6,5,
{16},,1h[8:1],,,,2h[8:1],,,,3h[8:1],,,,4h[8:1],,,,5h[8:1],,,,
7-4[8:1],,7,,1-5[8:1],,1,,
{32}8,7,6,5,
{16},,1,2,3,,8,1,2,,7,8,1,,6,7,8,,5,6,7,,
{32}1h[2:1]/6,5,4,,,,,,6,5,4,,,,,,
{16}7b,,,,2-5[8:1],,2,,8v5[8:1],,8,,3-1[8:1],,3,,
3-7[8:1],,,,3-5[8:1],,,,3w7[8:1],,,,3b,,,,
16,52,3/4h[16:3],,2,,1,5h[16:4],8,,1v4[8:1],,2,,1,,
8,7,6h[16:3]/5,,3,,2,5h[4:1],1,,2,,8h[8:1],,4h[8:1],,
1,2,3h[16:3],,4,,5,3h[4:1],5,,6,,6,,
3,5,3,5,2,7,2,7,4,6,4,6h[8:1],,4,4,,1b,,
{32}2,3,4,5h[32:3],,,
{16}7,4,,1,,4,5,3-7[8:1],6,2,7,3,,
{32}6,5,4,3h[32:3],,,8,1,2,,4,,
{16},1z5[0.4##0.3],,2s6[0.2##0.3],,12,,,,,
{32}82,73,64,5h[32:5],,,
{16}8,,1,,2,6h[4:1],3,,2,1,,8b,,
{32}18,2,3,4,,,,
{32}18,7,6,5,,,,
{16}3,5,2,6,1,7,3,2,1,
{1}8h[1:1],
4<1[32:24],
2-6[32:20],
{8}8pp5[32:20],,,,,
{16},2,,
{32},
{16}2w6[0.28##0.2],,
{32},
{1}2,
1V36[2:1],
{16}5V73[2:1]/4h[8:1],,,,2h[8:1],,,,1h[8:1],,,,8h[8:1],,,,1h[8:1]/7v4[8:1],,,,7/2h[8:1],,,,
3,4,2,5,1-6[8:1]*-4[8:1],6,8,7,1b,,,,
3-7[8:1],4,3,4,3,7,6,5,4-8[8:1],1,2,3h[16:1]/4,,,,,
1,7,1,7,3,5,3,5,2-6[8:1],6,2,6,2,,,,
15,24,3h[8:1],8,7,6,5,2,3,4,5h[8:1],,1b,,,,
4,5,4,5,12,12,,,56,56,,,7b,,,,
7,6,5,4,7,6,8,5,1-5[8:1],4,2,3,1,,,,
27,36,45,2,1,2,1,4,6,4,6h[8:1],,3b,,,,
3,2,18,7,6,5,8,1,2,3,4h[8:1],,5b,,,,
78,16,2v8[8:1]/5v7[8:1],,34,,25,,,,
{32}1,2,3,4,5,,
{16},8<5[8:1],,5>2[8:1],,2v5[8:1],,,,,,4,3,2,1,5b,,,,
7,6,5,4,1-3[8:1],,3-6[8:1],,6-4[16:1],,7,8,1b,,,,
8,1,2,3,6,5,4-2[8:1],1,2-6[8:1],3,,,1b,,,,
2,3,4,,64,37,,,28,73,,,1b,,,,
2,1v6[8:1],3,6>3[8:1],7,1,,,8,7,,,5b,,,,
1,2,3,8,7,6,2,3,4,7,6,5,1b,,,,
1,8,1,8,1,8,2,8,1,8,1,8,2b,,,,
2b,4,3,4,7b,5,6,5,1b,4,3,4,8b<4[2:1]*v5[2:1],,,,,,,,,
{2},
{1}1s5[2:1],
1pp3[2:1]*>4[2:1],
{1}1<6[4:1]*>4[4:1],
{16}3h[8:1]/7<4[4:1],,,,4q8[4:1],,3,,2,,1,1,,2h[16:2],,,
1/7v4[4:1],,2,,1,,2,,3b,,
1,8,7,6,5,
7h[8:1]/4h[8:1],,,,2h[8:1]/5h[8:1],,,,8h[8:1]/6h[8:1],,,,1h[8:1]/3h[8:1],,,,
7,,2,1,3,,7,8,6,1,5,4,5,4,5,4,8b,,,,
1,7,8,8,1,7,8,8,1,7,8,8,1,7,8,8,1,7,8,8,5,3,4,4,5,3,4,4,1b,,,,
8-4[8:1],1,2,3,8h,7,6,5,8,1,2,3,1-5[8:1],8,7,6,1h,2,3,4,1,8,7,6,2,3,4,5,1b,,,,
8,2,1,1,8,2,1,1,8,2,1,1,8,2,1,1,8,2,1,1,4,6,5,5,4,6,5,5,7b,,,,
7,6,5,4,1,2,3,4,6,6,2,2,8h[8:1],,,,
6h[8:1]/4h[8:1],,,,5h[8:1]/3h[8:1],,,,4h[8:1]/1b-5[8:1],,,,
1,2,3,4,,7b,,2,,2,,3,3,,8b,,1,8,7,6,,7,,3,,6-1[8:1],,,,67,,,,72,36,45,,6,,15,,2,,7,78,,3b,,6,4,6,4,7,3,7,3,8h[8:1],2w6[8:1],,,2,,,,,
24,,35,,46,,37,,82,,54,54,,1b,,,
26,,35,,42,,31,,8b,,3,2,1,8,7,6,1,5,4,5,2,4,3,4,17,,35,35,,8b/2b,,
{32}13,8,7,6,,,,71,2,3,4,
{16},,1,5,2,6,3,7,5,6,7,8h[1:1]/4v7[16:12],
