&title=Mermaid festa vol.1
&artist=μ's
&first=0
&des=Dorolily
&lv_5=13+
&inote_5=(127.1)
{1},
{40}1,2,3,4,5,6,7,8,1,2,3,4,5,6,7,8,1,2,3,4,{12}1-6[8:1]/5-2[8:1],,,{16}1b/5b,,,,
{16}7-3[8:1]/3h[4:1],,,,{12}7,1,1,{16}2b/8b,,,3b/7b,,,6h[4:1]/4b>6[4:1],,
{16},,,,5,,4^1[8:1],,,,{24}5,6,7,{16}8b,,,,
{16}1b/7b,,,2b/6b,,,3b/5bpp4[4:1],,,,1,1h[16:3],,,,,
{16}23,,,5,3,,46,,67,,,4,6,,53,,
{16}6/1b,6/1b,6/1b,6-3[8:1]/1bV72[8:1],,7b/3,,1b/6,,,,,5-1[8:1],,,,
{16}7h[16:3]/5,,,8h[16:3],6-2[8:1],,7,,8h[16:3]/6,,,1h[16:3],7-3[8:1],,8,,
{16}1h[16:3]/7,,,2h[16:3],8,,1,,2b,4,3,8,,7b,5,6,
{16}1-4[8:1],1,4,4,,6,6,5,8-5[8:1],8,5,5,,3,3,4,
{16}1b,1,,8b/3,,6/2b,,7b,{24}3,5,2,6,4,7,{16}4b-8[8:1],,53,,
{16}2h[16:3]/4,,,1h[16:3],3-7[8:1],,2,,1h[16:3]/3,,,8h[16:3],2-6[8:1],,1,,
{16}8h[16:3]/2,,,7h[16:3],1,,8,,7b,5,6,1,,2b,4,3,
{16}8^5[8:1],8,5,5,,3,3,4,1^4[8:1],1,4,4,,6,6,5,
{16}8b,8,,7b/1,,6/2b,,5b/3,{32}6-1[8:1],2,6,2,6,2,6,2,{16}6b,,,,
{16}8/3q5[2:1],,,,8,,,,8,,,,8-4[8:1],,,,
{16}8/3q5[2:1],,,,8,,,,8,,,,8,,,,
{16}1/6p4[2:1],,,,1,,,,1,,,,1-5[8:1],,,,
{16}1/6p4[2:1],,,,1,,,,1,,,,1,,{24}2,4,2,
{16}4-1[8:1],,,6,4,,5,,4q8[8:1]/8,,3,,4,2,,,
{16}5-8[8:1]/7,,,3,5,,4,,5p1[8:1]/1,,6,,5,7,,,
{16}72,,,3,42,,6,75,,1w5[16:1],8,2,1b,,,,
{16}4,5,4,7b,4,5,2b,5,4,5,2,4,1,8,5,7,
{16}1h[16:3],,,2h[16:3],,,3,,2/4-1[8:1],,{24}5,3,5,{16}4b,,,,
{16}8h[16:3],,,7h[16:3],,,6,,7/5-8[8:1],,{24}4,6,4,{16}5b,,,,
{16}1h[16:3],,,7h[16:3],,,3,,3/7-3[8:1],,{24}2,8,2,{16}7b,,,,
{16}1bw5[8:1],,,,1b,,,,2b/8b,,3,4,,6,5,,
{16}4/7h[16:3],,,8,7,,46,,5/2h[16:3],,,1,2,,35,,
{16}4/7h[16:3],,,8,6,,37,,2^7[8:1],2,,4,4,,5,,
{16}1b/6,1b/6,1b/6,1b/6,,,2,4,3,,7,5,6,4,5,3,
{16}4b-7[16:1],,,1b,,,3b-8[16:1],,,6b,,4,4,,15,,
{16}2,8,3,6,1<2[4:1],7,,4,4h[4:1],,,,,,,,
{48}1-6[8:1]/7,2,3,{16}4,,6,1-3[8:1]*-5[8:1],,4,,1b-6[8:1],,,,12,,,,
{48}7/8-4[8:1],1,2,{16}3,,6,8w4[8:1],,1,,8b,,,,26,,17,,
{16}3>6[8:1]/4pp5[8:1],,,,3b/4b,,,,3>6[8:1]/4pp5[8:1],,,,3b/4b,,,,
{16}1,,28,28,,7,5,6,2,4,3,,1b/5b,,,,
{48}8-3[8:1]/2,7,6,{16}5,,3,8-6[8:1]*-4[8:1],,5,,8b-3[8:1],,,,87,,,,
{48}2/1^4[8:1],8,7,{16}6,,,1^6[8:1]/6,,,,1b/4-7[8:1]*-1[8:1],,,,4,,,,
{16}6<3[8:1]/5q4[8:1],,,,6b/5b,,,,6<3[8:1]/5q4[8:1],,,,6b/5b,,,,
{16}8,,17,17,,2,4,3,5,4,6,5,7,1,8,,
{16}2h[8:1]/6h[8:1],,,4,3h[8:1]/8h[8:1],,,5,2-5[8:1]/6-1[8:1],,17,,2b/6b,,,,
{16}7h[8:1]/3h[8:1],,,5,6h[8:1]/1h[8:1],,,4,7-4[8:1]/3-8[8:1],,82,,7b/3b,,,,
{16}1,6,4,1,6^1[16:1],4,1,6^3[16:1],,,,8,8,,47,,
{16}8,3,5,8,3^8[16:1],5,8,3^6[16:1],,,,1,1,,25,,
{16}37,,,1,8,,47,,26,,,8,1,,25,,
{16}48,3b/7b,,,,,15,2b/6b,,,,,4-8[8:1],,,,
{16}2h[16:3]/4,,,1h[16:3],3-7[8:1],,2,,1h[16:3]/3,,,8h[16:3],2-6[8:1],,1,,
{16}8h[16:3]/2,,,7h[16:3],1,,8,,7b,5,6,1,,2b,4,3,
{16}8-5[8:1],8,5,5,,3,3,4,1-4[8:1],1,4,4,,6,6,5,
{16}8b,8,,1b/6,,3/7b,,2b,{24}6,4,7,3,5,2,{16}5b-1[8:1],,46,,
{16}7h[16:3]/5,,,8h[16:3],6-2[8:1],,7,,8h[16:3]/6,,,1h[16:3],7-3[8:1],,8,,
{16}1h[16:3]/7,,,2h[16:3],8,,1,,2b,4,3,8,,7b,5,6,
{16}1^4[8:1],1,4,4,,6,6,5,8^5[8:1],8,5,5,,3,3,4,
{16}1b,1,,2b/8,,3/7b,,4b/6,{32}3-8[8:1],7,3,7,3,7,3,7,{16}3b,,,,
{16}2-6[8:1]/6h[4:1],,,,{12}2,8,8,{16}7b/1b,,,6b/2b,,,3h[4:1]/5b<3[4:1],,
{16},,,,4,,5^8[8:1],,,,{24}4,3,2,{16}1b,,,,
{16}8b/2b,,,7b/3b,,,6b/4bqq5[4:1],,,,8,8h[16:3],,,,,
{16}76,,,4,6,,53,,32,,,5,3,,46,,
{48}8b/3,,,8b,4,,,,5,,,,6,,,,5,,1b,,4,1b,,,3,,,,4,,,,5,,,,6/8b,,,8b,5,,,,4,,,,
{16}3s7[8:1],,,,8bw4[16:1],,,8b,,,,,,,,,
{32}2,1,8,7,8,1,2,,,,,,,,,,{16},,,,,,,,
E
