&title=拝啓ドッペルゲンガー
&artist=kemu
&first=0
&lv_6=14
&des_6=Taxchan & nahcxaT
&des=Taxchan & nahcxaT
&inote_6=
(181){4},,,,,,,,1,
2,{8}3,{16}8,1,{4}2b/7b,
{8}4b/6,6,3h[16:1],3,5,5h[16:1],2,3,
4,4,7h[16:1],7,{16}4,5,{8}4h[16:1],5h[8:1],4,
{16}3,4,2,5,{8}1,{16}6,5,7,4,{8}8,{16}3,4,2,5,
{8}1h[8:1],7h[8:1],{16}3,5,1,7,{2}3q1[8:1],
{8}5b/3,3,6h[16:1],6,4,4h[16:1],7,6,
5,5,2h[16:1],2,{16}5,4,{8}5h[16:1],4h[8:1],5,
{16}6,5,7,4,{8}8,{16}3,4,2,5,{8}1,{16}6,5,7,4,
{8}8h[8:1],2h[8:1],{16}6,4,8,2,{8}6,{24}3,4,3h[6:1],{4}4h[8:1],
{16}5b,4,{8}5,7,{16}4,5,{8}4,2,{4}4h[8:1]/5h[8:1],
{16}2b,3,4,5,8,7,6,5,1,2,3,4,{4}5/6,
5/1b-5[8:1],5,6/4-8[8:1],6,
1/7-3[8:1],1,2/5-1[8:1],2,
8/3-7[8:1],8,6/5-1[8:1],6,
2/7-3[8:1],2,4/5-1[8:1],4,
{16}8b<5[16:1],,,8>3[16:1],,,{8}8,{2}4-8[8:1]*-7[8:1],
{16}1>4[16:1],,,1<6[16:1],,,{8}1,{2}5-1[8:1]*-2[8:1],
{8}4b,5,{16}6,8,{8}7,1,{16}2,4,{8}3,{16}7,5,
{8}6,4,{16}3,1,{8}2,{16}5,4,7,8,{8}6,3,
{4}4/8b-4[8:1],4,3/5-1[8:1],3,
8/2-6[8:1],8,7/4-8[8:1],7,
1/6-2[8:1],1,3/4-8[8:1],3,
7/2-6[8:1],7,5/4-8[8:1],5,
{16}7/6b-3[8:1],,,8,,,{8}1,{2}2-7[8:1]/4-7[8:1],
{16}8/6-3[8:1],,,1,,,{8}2,{16}4,3,4,3,4,3,{8}4,
5b,4,{16}3,1,{8}2,8,{16}7,5,{8}6,{16}2,4,
{8}3,5,{16}6,8,{8}7,{16}4,5,2,1,{4}3h[8:1],
{16}3,4,3,4,{8}3,{16}6,5,{8}6,4/5,{16}3,4,{8}3,
{16}2,5,2,6,2,7,2,8,{8}2v5[8:1]*<7[8:1],1/3,{16},,,,6,
5,6,5,{8}6,{16}3,4,{8}3,5/4,{16}6,5,{8}6,
{16}7,4,7,3,7,2,7,1,{2}7v4[8:1]*>2[8:1],
{8}3b,{16}6,5,{8}6h[8:1],{16}3,4,{8}3h[8:1],{16}7,5,{8}7h[8:1],{16}2,4,
{8}2h[8:1],{16}5,3,{8}5h[8:1],{16}4,6,{8}4h[8:1],{16}7,5,{8}7h[8:1],{16}4,6,
2b,1,3,8b,4,7,5b,6,3b,4,2,5b,1,6,8b,7,
2b,,,3h[8:1]/5h[8:1],,,{8}3h[16:1]/5h[16:1],4/2,{16}2,3,2,3,2,3,
2h[8:1]/3h[8:1],,,2h[8:1]/3h[8:1],,,{8}1/4,{4}4/1-5[8:1],5,
{8}4b/6b,{16}2,1,{8}2,3/5,{16}7,8,{8}7,4/6,8/2,
1/7-4[8:1],6,7/8-3[8:1],1,8/5,6,{16}2,4,{8}1,
5/3,{16}7,8,{8}7,6/4,{16}2,1,{8}2,5/3,1/7,
8/2-5[8:1],3,2/1-6[8:1],8,{4}4/1w5[8:1],1,
{16}3b,5,2,5,{8}1,{16}7,3,6,3,{8}5,4/2,4/6,
7/5p1[8:1],1,5-8[8:1],8,5-2[8:1],1-6[8:1],5,1,
{16}4h[16:3],,,3<2[16:7],,,{8}3h[2:1],,,,,8b/3,
{16}4,6,4,6,4,6,2b,8,4,6,1b,7,{8}3,
6b/4b,{16}2,8,{8}1,3/5,{16}7,1,{8}8,6/2-4[8:1],5/1-5[8:1],
2-6[8:1],1-7[8:1],2<4[4:1],1,{4}2,{8}8,6,
3/5,1,2/4,{16}7,8,5,4,{8}5,3/7-5[8:1],4/8-4[8:1],
7-3[8:1],8-2[8:1],7<4[8:1],8,{4}7b,{16}2,4,2,4,
3b,5,2,5,{8}1,{16}7,3,6,3,{8}5,4/2,4/6,
5b/7b,{16}8,6,7,5,6,4,5,3,7,1,6,4,8,2,
1/7-4[8:1],,,2,,,{8}3,{16}5/3-8[8:1],,,6,,,{8}7,
6/2,5/3,1>4[8:1]/7<4[8:1],2/6,{4}1/7,2b/6b,
2bv5[4:1]/1b<6[4:1],,,8b>3[4:1]/7bv4[4:1],
,,{2}6b-2[8:1]/3b-5[8:1],
{6}4h[12:1],4h[12:1],4h[12:1],7h[6:1],{12}5,7,,,{6}2h[6:1],
{12}4,2,,,{6}6h[6:1],{12}5,6,,,{2}6p7[4:1],
{6}2h[6:1],{12}4,2,,,{6}7h[6:1],
{12}5,7,,,{6}3h[6:1],{12}4,3,,,{2}1p2[4:1],
{4}5b,{12}3,4,3,
{6}4h[6:1],{12}3,5h[6:1],,,{6}1h[6:1],{12}3,2h[6:1],,,{2}8w4[8:1],
{4}2b,{12}6,5,6,
{6}5h[6:1],{12}6,4h[6:1],,,{6}8h[6:1],{12}6,7h[6:1],,,{2}1w5[8:1],
{4}7b/3b,{12}4,5,1-3[8:1],
{6}8-4[8:1],{12}1,8,,1-5[8:1],{6}8-6[8:1],{12}1,8,,1>4[8:1],
{6}8<5[8:1],{12}1,8,,,{4}2b/6b,{12}5,4,8-6[8:1],
{6}1-5[8:1],{12}8,1,,8-4[8:1],{6}1-3[8:1],{12}8,1,,8v5[8:1],
{6}1v4[8:1],{12}8,1,,,{4}3b/7b,{12}3,4,2-4[8:1],
{6}1-5[8:1],{12}2,1,,1-4[8:1],{6}8-5[8:1],{12}1,8,,8-4[8:1],
{6}7-5[8:1],{12}8,7,,,{4}6b/2b,{12}6,5,7-5[8:1],
{6}8-4[8:1],{12}7,8,,8-5[8:1],{6}1-4[8:1],{12}8,1,,7,
{4}8bw4[8:1],8b,{16}7b,4,6,5,{8}7,{16}2,5,
3,4,{8}2,{16}8,1,8,1,8,7,6,5,7,6,5,4,
6,5,4,3,5,4,3,2,6,1,7,8,{32}7,6,{16}5,3,8,
2,1,{32}2,3,{16}4,{8}6,6h[8:1],{16}1,2,3,4,2,3,4,5,
3,4,5,6,4,5,6,7,{24}1b,2,3,4,,,8,7,6,5,,,4,
3,2,1,8,7,3,2,1,8,7,6,{12}3,3,3,6,6,6,
{16}4,5,1,8,2,7,3,6,4b,5,4,5,3,6,3,6,
2,7,2,7,1,8,1,8,{32}1b,2,3,4,8,7,6,5,2,3,4,5,7,6,5,4,
{4}1w5[8:1],1,{2}3bV51[8:3]/7bV51[8:3],
{8},,,4qq2[4:1]/8qq6[4:1],,,,,,1/6,
{16},3/8,,,{2}2V41[8:3]/6V85[8:3],
{8},,,1>4[8:1]/5<8[8:1],,,,,{4}8-2[8:1]*-6[8:1],
8,{16}4,5,4,5,4,5,4,5,
4,5,4,5,4,5,4,5,4,5,4,5,4,5,4,5,
4,5,4,5,4w8[8:3],5,4,5,{2}4,
{8},7b-4[16:1],{16},3b-8[16:1],,,{8}6b,{16}7,2,7,2,7,2,
8b,1,6,3,7b,2,5,4,{8}5b/3b,{16}7,8,{8}7,6/4,
{16}2,1,{8}2,5/3,1/7,8/2-5[8:1],3,2/1-6[8:1],8,
1/4,3,{16}7,5,{8}8,3/5,1,2/4,{16}7,8,
5,4,{8}5,6/2-4[8:1],5/1-5[8:1],2-6[8:1],1-7[8:1],2V46[8:1],1,
{4}2b,{16}7,5,7,5,6b,4,7,4,{8}8,{16}2,6,
3,6,{8}4,5/7,4,5b/3b,{16}8,1,7,4,6,2,
5,3,7,1,6,4,8,2,1/7-4[8:1],,,2,,,{8}3,
{16}5/3-8[8:1],,,6,,,{8}7,6/2,5/3,1>4[8:1]/7<4[8:1],2/6,
{4}1/7,2b/6b,{8}3/7,4/8,6-1[8:1]/2-5[8:1],4/8,
{4}2/6,3b/7b,{32}1b/5h[1:1],2,3,4,,6,7,8,1,2,3,4,,6,7,8,
1,2,3,4,,6,7,8,1,2,3,4,,6,7,8,{2}1>8[2:1]*q8[2:1],
{16},,,,,,,,6,4,7,4,{8}8,{16}3,5,
2,5,{8}1,{16}6,4,7,3,{8}8b,2/1,{16}3,4,8,7,
{8}3,{24}5,4,6,{8}5,7,5b/3b,7/8,{16}4,5,8,5,
3,4,8,4,{8}2,{16}5,4,{8}4/6,2/1,{16}5,4,1,4,
6,5,1,5,{8}7,{16}4,5,2b,4,3,4,{8}2h[8:1],{16}7,5,
6,5,{8}7h[8:1],{16}4,6,3,7,2b,1,3,8,4,7,5,6,
{32}2,3,4,5,6,7,8,1,2,3,4,5,6,7,8,1,{2}2h[2:3]/7h[2:3],
{1},{16},,{32}1b/8b,
2/7,3/6,4/5,
E
