&title= TECHNOPOLIS 2085
&artist=PRASTIK DANCEFLOOR
&first=0
&des=Project Seika
&des_5=Project Seika
&lv_5=14
&inote_5=(134)
{1},
{16}46,,47,,35,,25,3h[8:3],,,1,,,1h[4:1],,,,8x,,,8x,,7x,,7-4[16:1],,56,,,,,,
{16}5h[8:1]/3h[8:1],,,,47,6,,6h[8:3],,,8,,,8h[4:1],,,,1x,,,1x,,2x,,2-5[16:1],,43,,,,,,
{16}12,,8-3[16:1],,1,,7-4[16:1],,6,,2h[8:1],,,2h[16:5],,,,,1,,1v3-5[4:1],,78,,,,,,,,6h[16:1],,
{8}6x-4[16:1],78,,3x-5[16:1],21,,7x-4[16:1],81,,2x-5[16:1],1/8v5[8:1]b,,8V24[8:1]b,,8b,,
{16}6,,45,,3,4,3,4,3h[8:1],,4,5,6h[8:1],,5,4,3,,54,,6,5,6,5,6h[8:1],,5,4,3h[8:1],,5,6,7,,56,,4,5,4,5,4h[8:1],,5,6,7h[8:1],,4,3,2,,43,,5,4,5,4,5h[8:1],,4,3,2h[8:1],,7,6,
{8}5qq5[4:1],,5x-8[4:1]/3x,2,1,,1,,4pp4[4:1],,4x-1[4:1]/6x,7,8,,8,,6qq6[4:1],,6xp1[4:1]/4x,3,2,,2,,
{32}A2,D3,A3,D4,A4,D5,A5,D6,A1/A6,D2,A2,D3,A3,D4,A4,D5,A8/A5,D1,A1,D2,A2,D3,A3,D4,A4f/7x,,7x,,7x,,7x,,
{16}6qq4[8:1],,,,2V46[4:1]/6-8[16:1],,,,2/6p1[4:1],,,,8,,,,
{16}7V51[4:1],,,8h[16:3],,,,,7V53[4:1],,,8h[16:3],,,,,
{16}1x-4[8:1],,4x-1[8:1],,1<5[4:1],,7<5-3[4:1],,5V31[4:1],,,,7-5[8:1],,,,7v4[8:1],,,,7pp8[8:3],,,,3,,3,3,,3,3,,
{16}3pp5[8:1],,,,7V53[4:1]/3-1[16:1],,,,7/3q8[4:1],,,,1,,,,
{16}2V48[4:1],,,1h[16:3],,,,,2q6[4:1],,,1h[16:3],,,,,
{16}5x-1[8:1],,8x,,8<4[4:1],7<3[4:1],6>2[4:1],5>1[4:1],8b,,,,,,,,
{32}A7,D7,A6,D6,A5,D5,A4,D4,A8/A3,D8,A7,D7,A6,D6,A5,D5,A1/A4,D1,A8,D8,A7,D7,A6,D6,A5f/2x,,2x,,2x,,2x,,
{16}1-7[16:1],,,,1-5-1[4:1],,,,7-3-7[4:1]/1,,,,7,,,,4,,6-8[16:1],5,6,,,,1v6[8:1],1,1v4[8:1],1,,,,,
{8}7x-3[8:1],3x-8[8:1],8V24[4:1],2-4[8:1],4v7[4:1],,1pp2[4:1],,
{4}1qq8[4:1],1>4[4:1],1<6[4:1],1,
{16}5v4[8:1],,,,8v5[8:1]/5-2[16:1],,,,5V71[4:1]/8,,,,2,,,,
{16}3-1[8:1],,4,5,3V57[4:1],,,,3v8[8:1],,,,3,,,,
{8}1<6[4:3]*-4[8:1],,,,5>2[8:1],,,,
{16}1h,,2,35,,7,64,,3h[32:1],4,5,6,Cf,,,,
{16}8-2[16:1],,,,8V62[4:1],,,,2V85[4:1]/8,,,,3,,,,3,,4-7[16:1],3,4,,,,8v3[8:1],8,8v5[8:1],8,,,,,
{8}2x-6[8:1],6x-1[8:1],1V75[4:1],7-5[8:1],5v2[4:1],,8qq7[4:1],,
{4}8pp1[4:1],8<5[4:1],8>3[4:1],8,
{16}4v5[8:1],,,,1v4[8:1]/4-7[16:1],,,,4V28[4:1]/1,,,,7,,,,
{16}6-8[8:1],,5,4,6V42[4:1],,,,6v1[8:1],,,,6,,,,
{8}8>3[4:3]*-5[8:1],,,,4<7[8:1],,,,
{4}8<4[4:1]z8[4:1]b*>4[4:1],,,Ch[8:1],
{8}4h[4:3]/6h[4:3],,,,,,,46,
{16}4/5-8[8:1],,7,3,5,,2,,3-8[8:1]/4,,1,5,3p1[4:1],,,,
{16}5,,6h[16:1],,7p5[4:1],,,,1,,2h[16:1],,3v2[8:1],,,,
{4}6v7[8:1]/3,6/1v4[8:1],1V75[8:1],,
{8}3,1,3-5[8:1],5-7[8:1],3,,8-3[8:1],,{16}8,,1,1,8-3[8:1]/2-4[8:1],,,,2-7[8:1]/8-6[8:1],,,,28,,,,
{32}1h[4:3]/7x,6x,5x,,,,,,7x,6x,5x,,,,,,7xV14[4:1],6x,5x,,,,,,,,,,,,,,
{16}A3,E4,E5,A5,B2,C,B6,A6,1x,1x,7x,7x,3x,3x,5x,5x,
{16}46,,3,4,2,,6,5,7,,3,5,1,,6,4,8,,2,5,1,,7,4,8,3,7,2,6<2v4[8:3],,,,
{8}C,,6<2v4[8:3],,C,,6,,3/C,,4-6-2-8[4:1]b/5-3-7-1[4:1]b,,,,,,
{16}45,,5,5,7,,4,4,2,,6,6,8,,3,3,1w5[8:1],,5-1[8:1],,1>7[4:1],,,,,,,,8,,1,8,
{16}1,1,1,1,3,3,3,3,5,5,5,5,7,7,7,7,1,1,,6,5,5,4,4,3,,6,5,4,,3,,
{16}1h[16:1]/2h[16:1],,1h[16:1]/2h[16:1],,3h[16:1]/8h[16:1],,4h[16:1]/7h[16:1],,5z1[8:1]b/6s2[8:1]b,,,,,,,,
{16}2qq8[8:1],,,,2-4[16:1]/6V82[4:1],,,,6/2p4[4:1],,,,5,,,,3V17[4:1],,,4h[16:3],,,,,3V57[4:1],,,2h[16:3],,,,,
{8}1xv6[8:1],6x<1[8:1],1pp4[4:1],5,4qq5[4:1],,6-1[8:1],,
{16}6-4[8:1],,,,6pp7[8:3],,,,2,,2,2,,2,2,,
{16}7pp1[8:1],,,,7-5[16:1]/3V17[4:1],,,,3/7q5[4:1],,,,4,,,,6V82[4:1],,,5h[16:3],,,,,6p2[8:1],,,7h[16:3],,,,,
{8}4x-8[8:1],1x,{16}1>5[4:1],2>6[4:1],3<7[4:1],4<8[4:1],1b,,,,,,,,2,,34,34,3/4-1[8:1],,5,,4-7[8:1],,,,4/2>5[8:1],,,,
{16}2/7>2[8:1],,,,4,,,,3xbh[32:1]/4xbh[32:1],3bx/4bx,3bx/4bx,3bx/4bx,{64}A4/3bx-8<6v1[8:3],D5,A5,D6,A6,D7,A7,D8,{8},
{16}5,,,4,,,3,,3h[4:1]/1h[4:1],,,,{32},2x/4x,3x/5x,4x/6x,{8}5x/7x,
{8}8xv3[8:1],3x>8[8:1],8qq5[4:1],4,5pp4[4:1],,3-8[8:1],,
{16}3-5[8:1],,,,3qq2[8:3],,,,7,,7,7,,7,7,,
{16}2qq8[8:1],,,,2-4[16:1]/6V82[4:1],,,,6/2p4[4:1],,,,5,,,,3V17[4:1],,,4h[16:3],,,,,3q7[8:1],,,2h[16:3],,,,,
{8}5x-1[8:1],8x,{16}8<4[4:1],7<3[4:1],6>2[4:1],5>1[4:1],8b,,,,,,,,7,,56,,56,,24,24,,1,8,1,8b,,,,
{16}53,,52,,64,,74,6h[8:3],,,8,,,8h[4:1],,,,1x,,,1x,,2x,,2-5[16:1],,43,,,,,,
