&title=SuddeИDeath
&artist=xi vs. モリモリあつし
&first=-0.02
&des=HL
&lv_5=15+
&inote_5=(236)
{1},
{24}1b,2x/8x,3x/7x,4s8b[4:1]`6s2[4:1],5,,,,,4b/6b,,,,,,,,,,,,,,,
{12}
2x,3,4,2x,3,4,2x,3,4,2x/8x,3/1,4/2,
3x,4,5,3x,4,5,3x,4,5,3x,4,5,
{16}
6x/3x,74,85,,1x/6x,85,74,,5x/2x,14,38,,2x/5x,36,47,,
{24}
8b,71,62,5z1[4:1]`3z7b[4:1],4,,,,,5b/3b,,,,,,,,,,,8,1,8,1,
{8}
2x/7x,3x/4x,1x/8x,5/6<1[6:1],,
{16}
2,3,4,5,6x,,
{8}
8x-3[8:1],8,2x-5b[8:1],2,{16}2/4x,5x,6x,7x,
{48}
E1,A1,E2,A2,E3,,
{32}
8,7,6,5,
{12}4x-8b[12:1],,,4b,5x-1b[12:1],,,5b/7x-3[12:1],,,7b,,,
2h[6:1]/4h[6:1],,,{24},{8}16,34,75,
{16}
3,4,5,6,B2,B3,B4,B5,
A8,A7,A6,A5,4,3,2,1,8b<6v5[8:14],,,,
{8}8b>2v3[8:12],,,,6!v5b[8:8],2!v3b[8:7]
,,,,,,,,,,,
1,,2,,3,,4h[8:1],,,2,3,4,5h[4:1],4,,,
8,,7,,6,,5bh[8:1],,,7,6,5,4h[4:1],5,5,,
23,,3,2,18,,,75,,24,,18,
{16}
26,37,48,5,6,7,,,
{12}
1,2,,,1,8,,,1,2,,,1,8,,{16},,
1,8,1,8,1,8,1,8,1,8,
{8}1>3b[8:1],,6<8[8:1],,2-6b[8:1],,,,,
{16}3,5,{24}3,4x,5,{16}3,5,2b>5b[8:1],,,,
{12}6,7,8,
{8}1<6[8:1],,3>1b[8:1],,7-3[8:1],,,,,
{16}6,4,{24}6,5x,4,{16}6,4,7b<4[8:1],,,,
{12}3,2,1,
{24}8x,1x,8x,2b,3,4,7x,8x,
{12}7x,8x,
{24}6,5,4,{16}3,,1,
{16}1,8v3[8:1],,,,8b/1bv6b[8:1],,,,1b,,,,,,
{16}15,48,37,2,1,,,8,7,,,2,1,,
{8}3h[4:1],,4h[4:1],,5h[4:1],,6h[4:1],,7,,7,
{16}1,2,3,4,5,
8,7,6,5,4,32,
1,8,76,5,4,23,
1,8,7,6,5,47,
8,1,2,3,4,5,,7,8,1x/A1,,,7,6x/A6,,
{24}3,4,5,{16}2,3,4,5,1,2,3,4,56,,8,7,6x/A6,,1,2,
{8}A3/B3,D6/E6,A2/B2,D7/E7,
{24}
4x,5,4x,5,6x,5,
{16}
6x,,1h[4:1],8,7,6,5,,27,38,14,,
{24}
5,6,5,6,5,6,5,6,5,6,5,6,
{16}
5x,4,3,2,8,7,6,5p,
{32}
2-6b[16:1],3,4,5,6,7,8,1,2b,,,,,,,,
{16}
1,8,7,6,1,2,3,4,7,6,5,4,2,3,4,5,
{24}
7,8,7,8,7,8,7,8,7,8,7,8,
{16}
7x,6,5,4,
{24}
E1,A1,E2,A2,E3,,
{16}
8x,1x,2x,,
{24}
A7,E7,A6,E6,A5,,
{12}
8x,7x,2,3,8,7,3,4,7,6,3,4,
{16}
7,6,5,43,2,1,87,6,5,43,2,1,8,7,6,5,4,3,2,1,
{12}
84,7,6,5,48,3,2,1,
{24}
8b/4b,3,2,1,8,7,6,,
{16}
1,8,1,8,1,3,2,4,
3,5,3,5,8,7,1,6,8,7,8,7,1,2,3,4,
{24}
8,7,6,5,4,,
{12}
1,2,3,48,,,
83,7,6,51,,,
{24}3,4x,5,4x,3,4x,5,4x,,,
{12}2,4,2,6,4,6,2,
{12}5b,4,,5b,6,,5b,3,,5b,7,,
{8}17,2,3,4,48,7,6,5,
{16}
7!>2[33.7#64:1]`3,4,5,3,2,1,3,4,5,3,2,1,3,4,5,3,2,1,3,4,5,3<2b[30:9],2,1,,
{24}
E4,E5,E6,E7,E8,E1,E2,,,{16},
{16}
8hx[2:1],,7x,6,5,,1x,2,3,,7x,6,5,4,3,2,
{8}
1x/8x,7,6,5,84,1,2,3,
{32}
4<7v8>3[8:16],35,26,17,
{16}
8h[8:13],,,,,,,,,,,,,,,,,,,,,,,,,,,,,,
3-1-5-7[8:12],,,,,,,,,,,,,,,,,,,,,,,,,
,,,,,,,Ch[4:7],,,,,,,,,,,,,,,,,,,,,,,,,,,,,,,,
{4}
E1f`A8/A1`E8/E2`E7/E3`A6/A3,,,,,,
{12}
1,3,2,8,6,7,
{6}
A1/E2/D2,7,{12}7,8,A1/E2/D2,,7,,7,6,5x`4x,,2,,
4,2,8x`7x,B1,B6,3x`4x,,,7`8h[4:1],,,,1,,2,,5,6,,7>2b[6:1],,,
7x,6,5,4<7[6:1],,1x,2,3,4,,
{8}
18,,45,,18,,45,,18,2,17,7,38
{16}
2,3,4,5,8,7,6,5,
{12}
4bh[4:3],,,,7x,8,1,7x,8,1,7x,8,
1bh[8:6],,,8,7,6,5h[4:1],,,
{12}
,62,37,48,1x/5x,4x/8x,
{12}
37,,3,24,,7,86,,2,
{24}2,,5,3,5,3,5,4,5,,{12}2,3,4,51,8,7,6,
{12}
45,,6,64,,3,25,,7,16,,2,2,
{24}8,7,6,5,2,3,4,5,,,
7,8,7,8,7,1,7,,,4,,,
{12}
7,6,5,1,2,3,7,6,5,2,3,4,
6,7,8,4,3,2,
{24}
1h[6:2],5,6,7,8,2,3,4,5,26,37,48,
{8}15,3,84,6,
{12}1,2,3,1,8,7,
{8}26,26,
{16}3,4,5,6,7,8,1,2,
{32}7x,6x,5x,4x,,,,,
{12}
3,3,3,3,3,3,3,3,3,3,3,3,
4,4,2,2,5,5,1,1,6,6,8,8,
7b,,,,
1,2>5v3b[12:10]`8<5v7[12:10],,,,,,,,,,,,,,,,
{24}
1,2,3,4,
{12}5-1b[12:1],,,,,8-4[12:1],,,,,,,,
2,1,2,4,3,4,8,7,8,6,5,6,
{24}
4,3,2,1,
{12}8-4b[12:1],,,8V62[6:1],,,,,,,
3,4,3,1,2,1,5,6,5,7,8,7,
{8}1,8<6[8:1],1,8-4[8:1],2,8,,53,,
{16}2,3,4,5,6,1,2,3,4,5,8,1,2,3,
{8}4z8b[8:3],,,
{24}8-5[8:3]`8!>5b[400:146],,,,,,,,
A8`A1,E8`E2,B7`A2,E3`E7,A3`B6,E4`E6,A4`A5,
{12},D6,D7,D8,D1/A5,A4,A3,A2,A1,A8,,,
{16}2,1,2,1,2,,8,1,8,1,8,,3,5,4,,
{24}8xb,7,6,5x,8xb,7,6,5x,8xb,1,2,3,8xb,1,2,3,8xb,7,6,5,
{20}4,{18}3,{17}2,{8}1qq7[4:1],,{996},,,{8},,,,
{12}8,1,2,37,,,1,8,7,
6,5,7,6,8,7,
1,1,7,1,1,3,2,4,2,7,5,7,
{12}1/8,,,34,25,,,{24}8h[3:1]/4,3,2,,,,4,5,6,,
{12},7,6,5,4,3,{8}1,1,7,7,
{4}3h[4:1]`4,,7h[4:1]`8,,6h[4:1]`5,,2h[4:1]`1,,
{8}5h[8:14],,1,,,3,,,7,,,,1,,,,
{8}
2-6b[8:1],2,7-4[8:1],7,2>5b[8:1],2,6v1[8:1],6,
3-8b[8:1],3,7p3[8:1],7,1>4b[8:1],1,8,8,
{16}1,2,3,4,1,2,3,4,8,1,2,3,8,1,2,3,
{24}5,4,3x,5,4,3x,5,4,3x,5,4,3x,
{16}5>2b[8:1],6,7,8,1,,,,
{16}1,,1,,
7,8,1,2,6,7,8,1,5,6,7,8,4,5,6,7,
{24}2,1x,8,1x,2,1x,8,1x,,
{16}4,3,2,5,6,,
{16}2,7,1,8,2,7,1,8,2,7,1,8,2,7,1,8,
{24}2,3,4,8,7,6,1,2,3,7,6,5,
{32}2-6b[8:1],3,4,5x,6x,7x,8,1,2,,,,,,,,
{12}
54,3,2,1,2,3,4,3,2,1,2,3,
{16}
4/8xb,7,6,5,7xb,6,5,4,6xb,5,4,3h[5:1],,,,,
{32}
14,2,3,4,5,6,7,8,
15,2,3,4,5,6,7,8,
16,2,3,4,5,6,7,8,
17,2,3,4,5,6,7,8,
{8}1xbv4b[8:1],1b,5bv8[8:1],5b,3,3,7h[8:1],,
{16}3,6,3,6,{32}3h,4xh,6h,5xh,3h,4xh,6h,5xh,3h,2xh,6h,7xh,3h,2xh,6h,7xh,3h,2xh,6h,7xh,3h,2xh,6h,7xh,
{24}1b,2,3,4,5x/8x,7,6,5,1x/4x,2,3,4,
{32}5x/8x,7,6,5,4,3,2,1,8,7,6,5,4,3,2,1,8xh[40:8],,,,,,,,
1b`7b,2b`6b,3b`5b,
4bq6q8q2q4b[40:46],{8},,,,,,,,,,,,,
{24}
2x,3x,4x,8,7,6,2,3,4,8,7,6,3,4,5,8,7,6,3,4,5,8,7,6,
3,4,5,7,6,5,3,4,5,7,6,5,3,4,5,7,6,5,
{8}34,16,,,
8>2-7>2b[4:1],,,,,,,,,,,,,,E
