&title=シルヴェリューンの薔薇姫 -Silverune Melorosa-
&artist=witch's slave
&first=0
&des_1=amdm910
&des_2=amdm910
&des_3=amdm910
&des_4=amdm910
&des_5=amdm910
&lv_5=14+
&des_6=amdm910
&des_7=amdm910
&des=amdm910
&clock_count=4
&demo_start=19.986
&inote_5=(168)
{1},
{8},,,,,,2h[8:1],{32}1,8,7,6,
{16}5h[16:3]/3b,,,4,6V84[4:1],,5,,4,,3,,2-4[8:1],,,,
{16}6h[16:3]/2,,,5,7V51[4:1],,8,,1,,2,,3-5[8:1],,,,
{16}3/7h[16:3],,,6,8V63[4:1],,4,,3V15[4:1],,2,,1,,8,,
{16}7,,6/5,,3/4,,2,,1>5[4:1]/8,,,,4,5,6,7,
{16}8b,,6,5b,6,,1b,,3,4,3b,,7b,,6,5b,
{16}6,,2b,,3,4,2b,2b,8b,7,6b,5,7,6,5b,4,
{16}3/7b,,6,5b,6,,1b/5,,2b,4b,3b,5b,4b-8[8:1],,2b/6b,,
{4}4b/8b^3[8:1]*^5[8:1],8bw4[8:1],8b,{32}1,2,3,4,5,6,7,8,
{16}1b/5b,,3,4,1,5,4,6,2,7,5,8,3,7,4,6,
{16}2,3,4,5,1,2,3,4,8,1,2,3,7,8,1,2,
{8}7h[16:1]/3h[16:1],8h[16:1]/4h[16:1],1h[16:1]/5h[16:1],2h[16:1]/6h[16:1],7h[12:1]/3h[12:1],
5h[12:1]/6h[12:1],1h[12:1]/8h[12:1],4h[12:1]/3h[12:1],
{4}5b-1[8:1]/7b-4[8:1],5b^8[8:1]/7b,{32}5b/8b,1,2,3,4,5,6,7,8,1,2,3,4,5,6,7,
{16}4b/8b,,,2/1,2h[4:1]/1<3[8:3],,,,,,4,,3,,2,,
{16}1/4,,2/5,,3/6,,7/4,,8h[8:1]/5,,4,,3/7,,2/6,,
{16}5h[8:1]/1,,3,,1h[8:1]/7,,5,,7h[8:1]/8,,6h[8:1],,5h[8:1],,4h[8:3],,
{16}3>6[8:3],,,,,,4,3,2h[4:1],,,,5,,3/6,,
{16}7/4,6,5,6,7h[8:1]/4,,3,,2/6,,1/5,,4/8h[8:1],,3,,
{16}4/1h[8:1],,5h[8:1],,2h[8:1],,6h[8:1],,3h[4:1],,,,1,,2/8,,
{16}3/7,4,5,6,3,5,4,6,2,5,4,6,3,7,5,8,
{16}4,7,2,6,3,5,1,4,8,1,2,3,8,7,6,5,
{16}4b/2b,,,7/8,7h[4:1]/8>6[8:3],,,,,,5,,6,,7,,
{16}8/5,,7/4,,6/3,,2/5,,1h[8:1]/4,,5,,6/2,,7/3,,
{16}4h[8:1]/8,,6,,8h[8:1]/2,,4,,2h[8:1]/1,,3h[8:1],,4h[8:1],,5h[8:3],,
{16}6<3[8:3],,,,,,5,6,7h[4:1],,,,4,,6/3,,
{16}2/5,2/5,,,1/4,1/4,,,3/7,3/7,,,6/3,,4/7,,
{16}5/8h[8:1],,4h[8:1],,7h[8:1],,3h[8:1],,6h[4:1],,,,8,,7/1,,
{16}2/6,2/6,,,1/5,1/5,,,2/4,2/4,,,5/7,5/7,,,
{16}2,1,3,8,4,7,5,6,{32}5,4,3,2,1,8,7,6,{16}5/1b,1b,3b,3b,
{16}4b,3,2,3,4,,4b,3,2,3,4,,4b,3,2,3,
{16}4,,4b,3,2,3,4,,3/4,,8/2,,7/1,,6/5,,
{16}5b,6,7,6,5,,5b,6,7,6,5,,5b,6,7,6,
{16}5,,5b,6,7,6,5,,2,3,4,5,1,2,3,4,
{16}1b/5b,,4,3,2,3,4,3,2/5,,5,6,7,6,5,6,
{16}7/4,,1,2,3,2,1,2,3/8,,8,7,6,7,8,7,
{16}6/1,,4,3,2,3,4,3,2/6,,8,7,6,7,8,7,
{16}6b/2b,6b/2b,,,8b/4b,8b/4b,,,1b-4[8:1]/7b,,3b/5b-8[8:1],,1,,5,,
{16}2b-6[8:1],,3b,4b,2b^5[8:1],,1b,,8b-3[8:1]/2b,,,,6b^1[8:1]/8b,,,,
{16}6b/4b-7[8:1],,,,1b-5[8:1]/4b,,,,1b/8b-4[8:1],,3,,1b^4[8:1]/8b,,6,,
{16}1b/7b,,,,2b-5[8:1]/8b-4[8:1],,3b/7b,,8b^5[8:1]/2b,,,,8b/2b-7[8:1],,1,,
{16}2b/4b^1[8:1],,6,5,4b/7b-3[8:1],,6,5,7b/4b,,,,1b/8b,,4b/5b,,
{16}2b/7b,,,3/4,3/4,,1b/7b,,,6/5,6/5,,1b/8b,,,2/4,
{16}2/4,,8b/7b,,6b/5b,,3b/4b,,1b/2b,,1b/2b,,7b,3b,6b,4b,
{16}5b-1[8:1],,3,4,2/5b^8[8:1],,3,4,{12}5b/2b,2b,2b,1b,1b,1b,
{1}8bV62[2:1]*s4[2:1],
{16}1b/5b,,2h[4:1],,,,7,6,5,,{24}4,5,3,4,,,6,,,
{8}7/5,4,3/5,6,7/1,2,3,4,
{24}2/5,,,5,4,6,{8}5,3,2/4,5,6/4,7,
{16}2/8,,2,3,4/8,1,2,3,8/4,,,,4-7[8:1]/6,,3/5,,
{16}2b/4b,,2,,3/8,,7,8,,1,8,,8/6,,3/4,,
{16}6,,6,,7/4,,3,4,,5,4,,4/2,,7/8,,
{24}1,,,3,,,5,4,5,4,5,4,{16}5,,6,,3/7,,8,1,
{24}7/2,,,4,,,6,5,6,5,6,5,{8}6,7,4/8,,
{16}2,3,4,5,1,2,3,4,8,1,2,3,7,8,1,2,
{16}6,7,8,1,5,6,7,8,4,5,6,7,3,4,5,6,
{16}2,1,2,1,3,8,3,8,4,7,4,7,5,6,5,6,
{8}4h[32:1]/7h[32:1],2h[32:1]/4h[32:1],1h[32:1]/7h[32:1],5h[32:1]/6h[32:1],2bv4[8:1]/8bv6[8:1],,2b/8b,,
{24}1b/8b,2/7,3/6,4/5,,,{16}3,3,4,4,{24}1,2,3,{16}4,6,5,7,4,6,
{16}2,2,{24}8,7,6,{16}5,3,4,2,{32}8h[64:1],7h[64:1],6h[64:1],,2h[64:1],3h[64:1],4h[64:1],,{16}6,5,7h[12:1],,
{24}3,4,3,4,,2,{16}6,6,5,5,{24}8,7,6,{16}5,3,{12}7h,7h,7h,
{32}1h[64:1],2h[64:1],3h[64:1],4h[64:1],5h[64:1],6h[64:1],7h[64:1],8h[64:1],{16}1,5,1,5,2,6,3,7,{24}4,3,2,8,7,6,
{16}5b/1b,,,,3b,3b,4b,4b,{16}2b,8,3,7,4,6,3,5,
{32}2,4,2,4,{24}2,,6,3,4,3,{16}4,2,{32}8h[64:1],7h[64:1]/1h[64:1],6h[64:1]/2h[64:1],3h[64:1]/5h[64:1],{16}4h[64:1],6,3,7,2h[12:1],,
{32}7,5,7,5,{24}7,,3,{16}6,4,7,5,{12}8b/4b,8b/4b,8b/4b,1b/5b,1b/5b,1b/5b,
{2}2b<4[4:1]/6bV42[16:3],{32}1,8,7,6,5,4,3,2,1,8,7,6,1/5,8/4,7/3,6/2,
{8}5bv8[8:1]/1bv4[8:1],,5/1,,,3h[8:1],4h[8:1],5h[8:1],
{8}6h[8:1],5h[8:1],4h[8:1],3h[8:1],1h[4:1],,2-6[8:1],1,
{8}2b/8b-4[8:1],,8b/1b,,2b/5b,3b/4b,8b/2b,6b/5b,
{16}7b-4[8:1]/4b-8[8:1],,,,,,,,1b/5b,,3b,3b,4bw8[8:1],,6b/2b,,
{8},,2b>6[4:1]/6b,,5/2,6,7-3[8:1],,
{8}2-5[8:1]/7,1,2/7>5[8:3],6,7/3h[8:1],,1,2,
{16}3,6,5,7,2,5,4,6,1,4,3,5,8,6,2,7,
{16}4,8,2,7,5,6,3,5,4,7,2,6,3b,5b,1b,6b,
{16}4b,,,2/8,2-6[8:1]/8h[4:1],,,,2,,7,,6/4-7[8:1],,5,,
{8}2/4-1[8:1],3,6/4-8[8:1],5,2/4^7[8:1],,4/8,1,
{8}2-5[8:1]*-6[8:1],,2V84[4:1],,4V25[4:1]/2,5,6,7,
{8}8-4[8:1],,1^6[8:1]/8,{16}3,2,1/5h[8:1],,,,3/4,,2/8,,
{16}5/7,,6,,3/4,,2/5,,3/4,,1,8,7/2,,3,,
{16}4/6h[8:1],,8,,3h[8:1]/5,,1,,5h[8:1]/7h[8:1],,,,8/7,,1/6,,
{16}2/5,2,6,,7/5,7,3,,1/4,1,6,,8/5,8,3,,
{16}1b,4,2,5,3,6,4,7,5b,4,3/7,7,1,1,5,5,
{16}2,4,3,5,2b,2,6,6,{24}1,2,3,4,,6,5,,7,4,,6,
{16}3b,5,{24}3,4,3,4,,2,5,,3,{32}7h[64:1],6h[64:1],5h[64:1],,1h[64:1],2h[64:1],3h[64:1],,{24}8,,5,7,,4,
{16}6b,3,5,2,{24}4,,1,5,,2,{32}8,7,6,5,{24}4,,2,6,5,6,5,,7,
{32}1b,8h[64:1]/2h[64:1],7h[64:1]/3h[64:1],4h[64:1]/6h[64:1],{24}5h[64:1],,7,3,,8,2,,7,{32}1,2,3,4,5,,,8,{32}2h[64:1],3h[64:1],4h[64:1],,8h[64:1],7h[64:1],6h[64:1],,
{24}4,8,4,8,4,8,3,7,3,7,3,7,2,6,2,6,2,6,1,5,1,5,1,5,
{2},{32}8b,1/7,2/6,3/5,{8}4-8[1:2],,,
{16}4,3,2,3,4,3,2,3,4,3,2,3,4,3,4h[8:7],,
{1},
{16}2b/6b,2b/6b,2b/6b,
E
