&title=The Next Arcady
&artist=Sephid
&first=0
&des=The Nayutan Alien
&lv_5=14
&inote_5=(130){1},
{24}8xh[8:5]/1x,,,,,,6x-2b[12:1],,,,,,,,,,,,5x,4,5,4,,,
{16}1b/Cf,,,,,,2xh[12:1]/5b,,,7xh[12:1]/5b,,,8b/2xh[12:1],,,4xh[4:1]/3b,
{16},,3x,2x,1x,8bx,,1b/7xh[16:7],,,5,,5,,5,,
{16}8b/Cf,,,,,,6xh[12:1]/5b,,,2xh[12:1]/4b,,,1b/7xh[12:1],,,5xh[12:1]/6b,
{16},,4x/6x,,7x,7xh[8:1],,1,6,4b,5,3,5b,4,6b,4,
{16}5x/3b,,5,,5/3,,5/2b,,5,2b,5,,5/2b,,5,2b,
{16}5/1x,,1,,1/6b,,1,6b,1,,1x/5b,,1x/5b,,1x/5b,,
{16}2,2,4,4,3,3,5,5,4,4,6,6,8,8,2,2,
{32}4x,5,6,7,8x,1,2,3,8x-4[12:1],,,,4x-8[12:1],,,,1x-5b[12:1],,,,2x,,,,1bx,Cf,,,,,,,
{16}7b/3b,,,,1xh[8:1],,4,2,5,3,7,5,8,4h[1:0],,2/6xh[8:1],
{16},,1,5,3,7,,8x/4xh[8:1],,1,2,8x,7,6,4x,3,
{16}7b/2b,,,,8xh[8:1],,5,7,4,6,2,4,1,5h[1:0],,7/3,
{16}7h[8:3]/3,,6,,8,,1,1h[16:3],,5,5h[4:1],,1b,,1b,,
{16}7b/3b,,,,1xh[8:1],,3,2,5,4,7,6,8,4h[1:0],,2/6xh[8:1],
{24},,,4,5,4,5,4,5,4,5,4,5-1[12:1],,,3,,,6,,,8,,,
{16}7b/2b,,,,8xh[8:1],,6,7,4,5,2,3,1,8,3,6,
{16}2h[8:3]/6b,,3b,,1b,,8b,8h[16:1],,4,8,4h[16:3],8b,,8b,,
{1}2b^5s1[2:3]/6bz2>8[2:3],
{1},
{16}1,,,2,,,3h[8:3],,,,B5,,E5,,,,
{16}8,,,7,,,6-4[12:1],,,,C,,,,,,
{8}1,,7/3,,4/5,4/5V31[4:1],,1xV75[4:1],
{8},5x>5[2:1],,,,,,1,
{8}2/8,,3/7,,5/4,5/4<8[4:1],,8x>4[4:1],
{8},4xqq8[2:1],,,,,C,,
{32}7b,,,,,,,,1/6<2[4:1],,,,,,,,2<6[4:1],,,,,,,,B4,E5,,,,,,,
{32}1,,,,,,,,8/3>7[4:1],,,,,,,,7>3[4:1],,,,,,,,B5,E5,,,,,,,
{32}8,,,,,,,,1/6V82[4:1],,,,,,,,2<6[4:1],,,,,,,,B4,E5,,,,,,,
{32}1,,,,,,,,8/3V17[4:1],,,,,,,,7>3[4:1],,,,,,,,B5,E5,,,,,,,
{8}8,,2/6,,5/4,5/4V68[4:1],,8V24[4:1],
{8},4<4[2:1],,,,,,8,
{8}1/7,,6/2,,4/5,4/5>1[4:1],,1<5[4:1],
{24},,,5pp1[32:15],,,,,,,4x,3x,2x-4[12:1],,2,,2,,2,B1f,,,,,
{16}2bx,4,3,4,1,5,3,5,1,6,4,6,1,7,5,7,
{16}8,6,5,6,1,5,4,5,2,4,3,4,1b,,5b/3b,,
{16}7b,4,6,5,8,3,6,4,8,2,5,3,8,1,4,2,
{16}1,2,4,3,2b/8b,,7b/4b,,5-1b[12:1],6,3,8,5b,,,,
{16}1b,8,5,7,1,6,4,5,2,8,1w5b[16:1],,,,1b,,
{16},8x,5,7,1,6,4,5,2,8,1-5-1b[8:1],,,,1b,,
{16},,8b-5[16:1]/7b-4[16:1],,,8b/7b,,,,,8b-4[16:1]/2b-5[16:1],,,8b/2b,,,
{32}1x-5[12:1],,,,8,,,,7-4[12:1],,,,6,,,,1,,,,2,,2,,8x/3x,4,5,6,,,,,
{16}1/7,,2,,3,5,4,6,1,,2/8,,3/7,,4/6,,
{16}1bV35[8:1]/5b,,8,1,6,7,8,,1s5[12:1],,5h[32:1],5h[32:1],,,2,4x,
{16}3,6,5,8,6h[8:1],,7,5,6,1,3,2,5,4,8h[32:1],,
{48}1b^4[12:1]/7b,,,,,,8,,,1,,,5h[1:0],,,6h[1:0],,,7h[1:0],,,8h[1:0],,,1xV74[32:5],,5,,1,,5,,1,,5,,1,,,,,,2h[1:0],,,,,,
{16}1b,,2b,8,3b,8,,4b/8,,5b,7b,,1b/B6,,8b/E4,,
{32}1s5[16:1]/8v5[16:1],,,,,,,,1b/8b,Cf,,,,,,,7x/2x<5[8:1],,,,3,,4,,5b/2x,,,,,,,,
{16}1,6,5,7,1h[1:0],1h[1:0],1h[1:0],1h[1:0],8h[1:0],4,5-1b[12:1],2,7h[8:1],,5bx,,
{48}8b^5[12:1],,,,,,1,,,8,,,4,,,3,,,2,,,1,,,4xV61[32:5],,8,,4,,8,,4,,8,,4,,,,,,2h[1:0],,,,,,
{32}3b,,,,1b/4b,,,,8-4[12:1],,8b,,,,4-8[12:1],,4b,,,,1-5b[12:1],,,,2b,,,,1bx,Cf,,,
{16}7b,,7,1,5,,5,1h[16:1],,5,1,5h[16:1],1b,5,1b,,
{48}5xh[4:1],,,,,,8,,,7,,,6,,,5,,,4,,,3,,,1,,2,,1,,2,,1,,2,,3xh[16:1],,,,4xh[16:1],,,,5xh[16:1],,,,
{16},,1/7,,2,4h[8:1],,5,7,1,8,,2h[1:0]/6,,4/8h[1:0],,
{16}2/6h[1:0],,7/3b,7h[1:0]/3b,,1/8b,,3b/7h[1:0],,2/6b,2h[1:0]/6b,,1bw5b[16:1]/8b,,3b/7b,,
{32},Cf,,,,,,,4x,,,,8,,4h[16:1],,,,8,,4,,8h[16:1],,4b,,8,,4b,,,,
{48}8xh[4:1],,,,,,5,,,6,,,7,,,8,,,1,,,2,,,4,,3,,4,,3,,4,,3,,2xh[16:1],,,,1xh[16:1],,,,8xh[16:1],,,,
{16},,4/6,,3,1h[8:1],,8,6,4,5,,3h[1:0]/7,,1/5h[1:0],,
{16}7h[8:3]/3b,,6b,,8b,,1b,1h[16:1],,5,1,5h[16:3],1b,,1b,,
{1}7b^4s8[2:3]/3bz7<1[2:3],
{1},
{16}8,,,7,,,6h[8:3],,,,B4,,E5,,,,
{16}1,,,2,,,3^5[12:1],,,,C,,,,,,
{1}6xV85-1[4:5],
{1},
{1}2xV48-6[2:3],
{1},
E
