&title=トリックハート
&artist=MIMI
&first=0
&lv_5=13.5
&des_5=nomiko
&inote_5=
(150){4},,,,5h[8:1],
{8}3b,{16}6,4,{8}7,4-8[8:1],7,6,
5,1,{4}2h[4:1],{8}6,5h[8:1],{4}3,
4h[8:1],{8}6b,{16}3,5,{8}2,5-1[8:1],2,3,
{4}4p2[4:1],4<8[4:1],{8}4,,,3h[4:1],
4,5,{4}4/6xz2b[4:1],2bxz6b[4:1],4,
4-8[8:1],4/5x<4b[8:3],2bx,4,
6,{8}3x/4x,2,1,8,6x/5x,7,
8,1,{4}3xh[4:1]/B6/E7/B7,8bxw4b[8:1],8b,
,2h[8:1],{8}1,3,{4}4h[8:1],
{8}3,5,{4}6h[8:1],{8}5,7,{4}8b,
1-4[8:1]*-3[8:1],1b,7-5b[8:1]*-4b[8:1],7b,
1,{8}7/8,1/2,3/4,5/6,{4}8b/7b,
{8}6V47[8:1],3,6x,{16}8x-4[8:1],1,{8}2,8,3-8[8:1],2,
3/7-4[8:1],6,7,{16}8x-4[8:1],1,{8}2,3xh[8:1],,,4h[8:1],
3h[8:1],2h[8:1],{16}1xV38[8:1],8,{8}7,5xh[8:1],,,4h[4:1],
1-5[8:1],7-3[8:1],1,7,4x,{4}2x/8b,
{8}3V52[8:1],6,3x,{16}1x-5[8:1],8,{8}7,1,6-1[8:1],7,
6/2-5[8:1],3,2,1-5[8:1],7-3[8:1],1,{4}7,
{8}5h[8:1],6h[8:1],7h[8:1],8xV61[8:1],5,{16}4x,3,{4}2h[8:1],
{8}5h[4:1],1V35[8:1],7-3[8:1],1,7,4x,{4}2x/8b,
{16},,,,2x,8,2,8,1,7,1,7,{8}8xV26[8:1],5,
7,8,{16}7x,1,7,1,8,2,8,2,{8}1xV73[8:1],4,
2,1,2-5[8:1],1,7<1[4:1],8,,,{4}5b,
{8}7/3x-7[8:1],2,3/6x<1[8:1],5,{4}4b/6,
{8}5,4,{16}3x,5,3,5,4,6,4,6,{8}5xV37[8:1],8,
6,5,{16}6x,4,6,4,5,3,5,3,{8}4xV62[8:1],1,
3,4,3-8[8:1],4,6-1[8:1],5,4>1[8:1],3,
5pp5[4:1]*qq5[4:1],6,{4}5bxw1b[8:1],,6b/3-7[8:1],
5,{8}1,{16}8,7,{8}6,1,B2/E3,5,
E7/B7,4,6,{16}1,2,{8}3,7,B6/B5,2,
B3/B4,7,2h[8:1],{16}8,7,{8}6,3,B2/B1,6,
B7/B8,2>4[8:1],8<6[8:1],2,8,1,{4}1b,
{8}5,6,7,{16}1,2,{8}3,8,B7/E7,4,
E3/B2,5,3,{16}8,7,{8}6,2,B3/B4,7,
B6/B5,2,7h[8:1],{16}1,2,{8}3,6,B7/B8,3,
B2/B1,7<5[8:1],1>3[8:1],7,1,8,{4}8b,
3h[8:1],{8}5b,{16}6,4,{8}7,4p8>3[4:1],7,6,
5,6,7h[4:1],4,3,2,{4}1/B6/B5/E6,
7h[8:1],{8}4b,{16}3,6,{8}2,5-1[8:1],2,3,
{4}4pp2[4:1],4<1[4:1],{8}4,,,3h[4:1],
4,5,{4}2/6xV82b[4:1],2bxV86b[4:1],4,
4-8[8:1],4/5xV31-7b[8:3],2bx,4h[4:1],
{8},,6x/B3/E4/B4,7,8,1,3x/B6/E6/B5,2,
1,8,{4}6xh[4:1]/B2/E3/B3,1bxw5b[8:1],1b,
,2h[8:1],{8}1,3,{4}4h[8:1],
{8}3,5,{4}6h[8:1],{8}5,7,{4}8b,
2/1-4[8:1]*-5[8:1],1bx,8/7-3b[8:1]*-4b[8:1],7bx,
1,{8}8/7,6/5,4/3,2/1,{4}8b/7b,
{8}6V47[8:1],3,6x,{16}8x-4[8:1],1,{8}2V46[8:1],8,2,8,
7h[8:1],2,3h[8:1],{16}1x-5[8:1],8,{8}7V53[8:1],1,{4}7,
{8}4h[8:1],3h[8:1],2h[8:1],1p4[16:3]*<5[16:3],3,1bx,,,4xh[4:1],
1-5[8:1],7-3[8:1],1,7,4x,{4}2x/8b,
{8}3V52[8:1],6,3x,{16}1x-5[8:1],8,{8}7,1,4x-7[8:1],5x,
2x-5[8:1],3x,{16}2x/6x,7,{8}8V64[8:1],2-6[8:1],8,{4}2,
{8}5h[8:1],6h[8:1],7h[8:1],8xV61[8:1],5,{16}4x,3,{4}2h[8:1],
{8}5h[4:1],1V35[8:1],7-3[8:1],1,7,{24}6x,5x,4x,{4}3x/8b,
{16},,,,2x,1,2,8,2,7,2,6,{8}1x<4[8:1],5,
{4}6h[8:1],{16}7x,8,7,1,7,2,7,3,{8}8x>5[8:1],4,
{4}3h[8:1],{8}2-5[8:1],1,7<1[4:1],8,,,{4}5b,
{8}7/3x-7[8:1],2,3/6x<1[8:1],5,{4}4b/6,
{8}5,4,{16}2x,1,2,8,2,7,2,6,{8}1x<4[8:1],5,
{4}6h[8:1],{16}7x,8,7,1,7,2,7,3,{8}8x>5[8:1],4,
{4}3h[8:1],{8}3-8[8:1],4,3/6-1[8:1],5,6/4>1[8:1],3,
4/5q5[4:1]*qq5[4:1],6,{4}5x<8b[8:1],,1-4<6b[8:1],
7b,{8}1x,{16}8,7,{8}6-1[8:1],2,3-8[8:1],4,
6,5,6,{16}4,3,{8}2-5[8:1],6,7-4[8:1],8,
2,1,2,{16}8,7,{8}6V47[8:1],2,4,3,
1,2>4[8:1],8<6[8:1],2,8,1,{4}1b,
{8}5,6,7x,{16}1,2,{8}3-8[8:1],7,6-1[8:1],5,
3,4,3,{16}5,6,{8}7-4[8:1],3,2-5[8:1],1,
7,8,7h[8:1],{16}1,2,{8}3V52[8:1],7,5,6,
8,7<5[8:1],1>3[8:1],7,1,8,{4}8b,
4>2[8:1],5b,{8},6,{4}2,
7<5[8:1],3b,{8},4,{4}5,
3,{8}6h[8:1],5,{4}4,{8}4h[8:1],3,
{4}2,{8}2h[8:1],1,{6}8h[8:1],{24}1,2,{4}3b/6b,
{8},,4-2[8:1],5,6,6,5-3[8:1],6,
7,7,8-6[8:1],1,2,2,1-7[8:1],2,
3,3,5,3,1,7,B2/E2/B1,B4/B3/E4,
B5/E6/B6,B8/B7/E8,2bh[8:1],4bh[8:1],6bh[8:1],8bh[8:1],{4}1b,
{8}3/7>5b[8:1],2,7bx,{16}8x-4[8:1],1x,{8}2x,8,5x-2[8:1],4x,
7x-4[8:1],6x,7,{16}8xq4[8:1],1,{8}2,3,{4}5b,
{8}4h[8:1],3h[8:1],2h[8:1],{16}1xV38[8:1],8,{8}7,5xh[8:1],,,4h[4:1],
1-5[8:1],7-3[8:1],1,7,{24}6,5,4,{4}3x/8b,
{8}3V52[8:1],6,3x,{16}1x-5[8:1],8,{8}7,1,4x-7[8:1],5x,
2x-5[8:1],3x,2,{16}1q5[8:1],8,{8}7p3[8:1],1b,{4}7b,
{8}5h[8:1],6h[8:1],7h[8:1],8xV61[8:1],5,{16}4x,3,{4}2h[8:1],
{8}5h[4:1],1V35[8:1],7-3[8:1],1,7,{24}6,5,4,{4}3x/8b,
{16},,,,4x,8,3,7,2,6,1,5,{8}8x>5[8:1],7,
6/8b,6,{16}6x,2,6,2,7,3,8,4,{8}1x<4[8:1],2,
3/1b,3,2-5[8:1],1,2/7<1[4:1],8,{4}7,
5b,{8}7/3x-7[8:1],2,3/6x<1[8:1],5,{4}4b/6,
{8}3,2,{16}1x,5,2,6,3,7,4,8,{8}5x>8[8:1],6,
7/5b,7,{16}7x,3,7,3,6,2,5,1,{8}4x<1[8:1],3,
2/4b,2,3-8[8:1],4,3b/6-1[8:1],5,6b/4>1[8:1],3,
4b/5pp5[4:1]*qq5[4:1],6,{4}5bxw1b[8:1],,3>8[8:1]/7<4[8:1],
{1}7b/3b,
E
&lv_7=13.0?
&des_7=nomiko
&inote_7=
(150){4},,,,5h[8:1],
{8}3b,{16}6,4,{8}7,4-8[8:1],7,6,
5,1,{4}2xh[4:1],{8}6,5h[8:1],{4}3,
4h[8:1],{8}6b,{16}3,5,{8}2,5-1[8:1],2,3,
{4}4p2[4:1],4x<8[4:1],{8}4x,,,3xh[4:1],
4,5,{4}4x/6xz2b[4:1],2bxz6b[4:1],4,
4x-8[8:1],4/5<4b[8:3],2bx,4,
6,{8}3x/B8/B7/E8,2,1,8,6x/E2/B1/B2,7,
8,1,{4}3xh[4:1]/B6/E7/B7,8bxw4b[8:1],8b,
,2xh[8:1],{8}1,3,{4}4xh[8:1],
{8}3,5,{4}6xh[8:1],{8}5,7,{4}8b,
1-4[8:1]*-5[8:1],1bx,8/7-3b[8:1]*-4b[8:1],7bx,
1,{8}8/7,6/5,4/3,2/1,{4}8b/7b,
{8}6V47[8:1],3,6x,{16}8x-4[8:1],1,{8}2,8,5-2[8:1],4,
7-4[8:1],6,7,{16}8xq4[8:1],1,{8}2,3,{4}5,
{8}4h[8:1],3h[8:1],2h[8:1],{16}1xV38[8:1],8,{8}7,5xh[8:1],,,4h[4:1],
1-5[8:1],7-3[8:1],1,7,{24}6x,5x,4x,{4}3x/8b,
{8}3V52[8:1],6,3x,{16}1x-5[8:1],8,{8}7,1,4-7[8:1],5,
2-5[8:1],3,2,{16}1q5[8:1],8,{8}7p3[8:1],1,{4}7,
{8}5h[8:1],6h[8:1],7h[8:1],8xV61[8:1],5,{16}4x,3,{4}2h[8:1],
{8}5h[4:1],1V35[8:1],7-3[8:1],1,7,{24}6x,5x,4x,{4}3x/8b,
{16},,,,2x,8,2,8,1x,7,1,7,{8}8xV26[8:1],5,
7,8,{16}7x,1,7,1,8x,2,8,2,{8}1xV73[8:1],4,
2,1,2-5[8:1],1,7<1[4:1],8,,,{4}5b,
{8}7/3x-7[8:1],2,3/6x<1[8:1],5,{4}4b/6,
{8}5,4,{16}3x,5,3,5,4x,6,4,6,{8}5xV37[8:1],8,
6,5,{16}6x,4,6,4,5x,3,5,3,{8}4xV62[8:1],1,
3,4,3-8[8:1],4,6-1[8:1],5,4>1[8:1],3,
5pp5[4:1]*qq5[4:1],6,{4}5bxw1b[8:1],,6b/3-7[8:1],
5,{8}1x,{16}8,7,{8}6,1,B2/E3,5,
E7/B7,4,6,{16}1,2,{8}3,7,B6/B5,2,
B3/B4,7,2h[8:1],{16}8,7,{8}6,3,B2/B1,6,
B7/B8,2>4[8:1],8<6[8:1],2,8,1,{4}1b,
{8}5,6,7x,{16}1,2,{8}3,8,B7/E7,4,
E3/B2,5,3,{16}8,7,{8}6,2,B3/B4,7,
B6/B5,2,7h[8:1],{16}1,2,{8}3,6,B7/B8,3,
B2/B1,7<5[8:1],1>3[8:1],7,1,8,{4}8b,
5h[8:1],{8}3b,{16}6,4,{8}7,4-8[8:1],7,6,
5,1,{4}2xh[4:1],{8}6,5h[8:1],{4}3,
4h[8:1],{8}6b,{16}3,5,{8}2,5-1[8:1],2,3,
{4}4p2[4:1],4x<8[4:1],{8}4x,,,3xh[4:1],
4,5,{4}4x/6xz2b[4:1],2bxz6b[4:1],4,
4x-8[8:1],4/5<4b[8:3],2bx,4,
6,{8}3x/B8/B7/E8,2,1,8,6x/E2/B1/B2,7,
8,1,{4}3xh[4:1]/B6/E7/B7,8bxw4b[8:1],8b,
,2xh[8:1],{8}1,3,{4}4xh[8:1],
{8}3,5,{4}6xh[8:1],{8}5,7,{4}8b,
1-4[8:1]*-5[8:1],1bx,8/7-3b[8:1]*-4b[8:1],7bx,
1,{8}8/7,6/5,4/3,2/1,{4}8b/7b,
{8}6V47[8:1],3,6x,{16}8x-4[8:1],1,{8}2,8,5-2[8:1],4,
7-4[8:1],6,7,{16}8xq4[8:1],1,{8}2,3,{4}5,
{8}4h[8:1],3h[8:1],2h[8:1],{16}1xV38[8:1],8,{8}7,5xh[8:1],,,4h[4:1],
1-5[8:1],7-3[8:1],1,7,{24}6x,5x,4x,{4}3x/8b,
{8}3V52[8:1],6,3x,{16}1x-5[8:1],8,{8}7,1,4-7[8:1],5,
2-5[8:1],3,2,{16}1q5[8:1],8,{8}7p3[8:1],1,{4}7,
{8}5h[8:1],6h[8:1],7h[8:1],8xV61[8:1],5,{16}4x,3,{4}2h[8:1],
{8}5h[4:1],1V35[8:1],7-3[8:1],1,7,{24}6x,5x,4x,{4}3x/8b,
{16},,,,2x,8,2,8,1x,7,1,7,{8}8xV26[8:1],5,
7,8,{16}7x,1,7,1,8x,2,8,2,{8}1xV73[8:1],4,
2,1,2-5[8:1],1,7<1[4:1],8,,,{4}5b,
{8}7/3x-7[8:1],2,3/6x<1[8:1],5,{4}4b/6,
{8}5,4,{16}3x,5,3,5,4x,6,4,6,{8}5xV37[8:1],8,
6,5,{16}6x,4,6,4,5x,3,5,3,{8}4xV62[8:1],1,
3,4,3-8[8:1],4,6-1[8:1],5,4>1[8:1],3,
5pp5[4:1]*qq5[4:1],6,{4}5bxw1b[8:1],,6b/3-7[8:1],
5,{8}1x,{16}8,7,{8}6,1,B2/E3,5,
E7/B7,4,6,{16}1,2,{8}3,7,B6/B5,2,
B3/B4,7,2h[8:1],{16}8,7,{8}6,3,B2/B1,6,
B7/B8,2>4[8:1],8<6[8:1],2,8,1,{4}1b,
{8}5,6,7x,{16}1,2,{8}3,8,B7/E7,4,
E3/B2,5,3,{16}8,7,{8}6,2,B3/B4,7,
B6/B5,2,7h[8:1],{16}1,2,{8}3,6,B7/B8,3,
B2/B1,7<5[8:1],1>3[8:1],7,1,8,{4}8b,
4>2[8:1],5,{8},6,{4}2,
7<5[8:1],3,{8},4,{4}5,
4>2[8:1],5,{8},6,{4}2,
7<5[8:1],3,{8},4,{4}5,
4>2[8:1],5,{8},6,{4}2,
7<5[8:1],3,{8},4,{4}5,
4>2[8:1],5,{8},6,{4}2,
7<5[8:1],3,{8},4,{4}5,
{8}6V47[8:1],3,6x,{16}8x-4[8:1],1,{8}2,8,5-2[8:1],4,
7-4[8:1],6,7,{16}8xq4[8:1],1,{8}2,3,{4}5,
{8}4h[8:1],3h[8:1],2h[8:1],{16}1xV38[8:1],8,{8}7,5xh[8:1],,,4h[4:1],
1-5[8:1],7-3[8:1],1,7,{24}6x,5x,4x,{4}3x/8b,
{8}3V52[8:1],6,3x,{16}1x-5[8:1],8,{8}7,1,4-7[8:1],5,
2-5[8:1],3,2,{16}1q5[8:1],8,{8}7p3[8:1],1,{4}7,
{8}5h[8:1],6h[8:1],7h[8:1],8xV61[8:1],5,{16}4x,3,{4}2h[8:1],
{8}5h[4:1],1V35[8:1],7-3[8:1],1,7,{24}6x,5x,4x,{4}3x/8b,
{16},,,,2x,8,2,8,1x,7,1,7,{8}8xV26[8:1],5,
7,8,{16}7x,1,7,1,8x,2,8,2,{8}1xV73[8:1],4,
2,1,2-5[8:1],1,7<1[4:1],8,,,{4}5b,
{8}7/3x-7[8:1],2,3/6x<1[8:1],5,{4}4b/6,
{8}5,4,{16}3x,5,3,5,4x,6,4,6,{8}5xV37[8:1],8,
6,5,{16}6x,4,6,4,5x,3,5,3,{8}4xV62[8:1],1,
3,4,3-8[8:1],4,6-1[8:1],5,4>1[8:1],3,
5pp5[4:1]*qq5[4:1],6,{4}5bxw1b[8:1],,6b/3-7[8:1],
{1}5,
E
