&title=Straight into the lights
&artist=Cosmograph
&first=0.05
&des=红玉さいころ
&lv_6=14
&inote_4=
&inote_5=
&inote_6=(90)
{1},,
{16}7,7h[16:15],,8<1[16:7],8,,1,8,,,,,,,,,2,3>8[8:1],4,7/5,,3/7,6,5,5h[2:1],,7,7,8,8,1,1,2,2h[16:15],,1>8[16:7],1,,8,1,,,,,,,,,
{16}7h[8:1],3p6[8:1],3,8/4,,6,7,8,1-4[16:1]/5-8[16:1],,6/2,6/2,1b/5b,,,,
{16}7h[8:1]/5V31[8:1],,4,3h[16:3],5,,,,2h[8:1]/4<8[8:1],,5,6h[16:3],4,,,,
{16}8V24[8:1]/6h[8:1],,1,2h[16:3],8,,,,1<5[8:1]/3h[8:1],,8,7h[16:3],1,,,,
{16}4h[8:1],5,6h[8:1],5,3h[8:1],4,5h[8:1],1,2h[8:1],8,7h[8:1],8,1,2/8,3/7,4/6,5,2/4,1/8,7/5,
{32}3,4,3,6,5,6,
{64}1,2,3,4,5,6,7,8/1h[64:61],,,,,,,,,,,,,,,,,,,,,,,,,,,,,
{2}8h[8:7],
{8},,,2b-5[16:1],
{16}3,4,2,6,7-4[16:1]/4,4,6,5,7,,1>5[8:1],,7/8,6,1,,
{8}7-3[16:1],
{16}1V35[8:1]/8,,7V15[8:1]/3,2,1,,7,,4,3,2,1,8q4[16:1]*p4[16:1],,2/6,,8b,,7h[4:1],8,1V75[16:1],,2h[4:1],,1,,4,5,6,7,2h[4:1],,1>5[16:1],,7h[4:1],8,1,,6,,8>4[16:1]*<4[16:1],,2V48[8:1]/6V48[8:1],,8b,,2b/6b,,,,
{16}7V53[8:1],4,6,5,7,,1<5[8:1],2,3h[8:1],2,1,,
{16}3-7[16:1],,1V75[8:1]/8,,3V15[8:1]/7,8,1,,3,,8,7,6,5,4q8[16:1]*p8[16:1],,2/6,,4b,,
{16}3h[4:1],4,5V31[16:1],,6h[4:1],,5,,8,1,2,3,7h[4:1],,8<4[16:1],,2h[4:1],1,8,,3,,4h[16:1]/5h[16:1],,3/6,2/7,1/8,2/7,
{32}3,4,3,6,5,6,3,4,2,6,5,7,
{32}1,2,3,7,6,5,2,3,4,8,7,6,
{64}1,2,3,4,5,6,7,8,1h[8:1],,,,,,,,
{16}8bV24[8:1],7,6,5h[8:1],8,,6,7,8<4[8:1],,1/7,,
{32}8/4,3,2,1,8,7,6,5,4h[8:1]/8-4[16:1],,
{16},,7-5[16:1],8b,,1-3[16:1],7b,,,1b-5[16:1],8,7,6,5h[8:1]/1b,,4bV68[8:1],3,2,1h[8:1],4,,2,3,4>8[8:1],,3/5,,
{32}4/8,7,6,5,4,3,2,1,
{16}8/4-7[16:1],,2/6h[8:1],3,4b-1[16:1],,8,8-5[16:1],4b,,8>8[16:18],8b,,1b,1,,
{16}6h[16:1],,,7h[16:1],,,8h[16:1],,
{8}8>8[8:1]*>8[8:1],,8b,,2,
{16}1/8,7,6/2,5,
{32}3/4,2,1,8,7,6,5,4,3/7,8,1,2,3,4,5,6,7/1h[8:3],,,,
{4}8<1[4:2],,,,8<1[4:2]/1,,,4h[2:1],
{16}7,7,,6,6,,
{32}1,2,3,7,6
,5,1h[16:5],,,,6,,5,,5,,5h[8:3],,,,
{16}2,2,,3,3,,
{32}8,7,6,2,3,4,8h[16:5],,,,
{16}3,4,4,4,,
{16}1/2,,3/4,,5/6,,7/8,,1,1,1,1,1,1,1,1,
{32}6,5,6,3,4,3,6,5,7,3,4,2,
{48}7,6,5,1,2,3,
{4}4/8h[2:1],,
{16}2b-5[16:1],,,7b-4[16:1],2,,1b>5[8:1],7,,,1/5,6,7,8,1h[8:1]/5,4,3b-1[16:1],,,5b-7[16:1],3,,4b-8[16:1],5,2,3,4,7,6,5,
{32}4/8,1,2,3,
{16}4b/7b-4[16:1],,,2b-5[16:1],7,,8b<4[8:1],2,,,
{16}8/4,3,2,1,8h[8:1]/4,5,
{16}6b-8[16:1],,,4b-2[16:1],6,,5b-1[16:1],4,7,6,5,2,3,4,
{32}5/1,8,7,6,
(180){4}5b/2b-8[8:1],3,4-2[8:1],5,6-4[8:1],7,8-6[8:1],1,1b-3[8:1],8,7-1[8:1],6,5-7[8:1],4,3-5[8:1],2,
(90)
{16}1h[16:1],,1h[16:1],,8h[16:1],,8h[16:1],,
{16}7/5,6,5/3,2,1/7,6,5/4,3,2/8,7,6/1,2,
{32}3/8,7,6,5,4w8[180#4:1]/8,1,2,3,4b,,,,,,,,
(180){8}2b/4b,1b/8b,7b<5[8:1]/5b-1[8:1],,7b/5b,,
{16}3,4,3,,2/5h[4:1],1,8,7,6-2[8:1],,,,6/4V28[8:1],,,,4,,,,
{16}7,6,5,4,1b-5[8:1],,,,1-3[8:1],,7,,1-5[8:1],,6,,1,,7,,8-4[8:1]/4>2[8:1],,,,8b/4b,,,,
{16}6,5,6,,7/4h[4:1],8,1,2,3-7[8:1],,,,3/5V71[8:1],,,,5,,,,
{16}2,3,4,5,8b-4[8:1],,,,8-6[8:1],,2,,8-4[8:1],,3,,8,,2,,1h[8:2]/5h[8:2],,,,,,
{16}1/5,2/6,3/7,4/8,1-5[8:1]/5<4[8:11],,,,1b,,,,
{8}4,4,,5,5<4[16:3],5,5,,,
{4}7-3[8:1],
{16}7/2h[4:1],,,,
{16}4,5,6,7,8b-4[8:1],,,,8,,2-8[8:1],,7-3[8:1],,2,,7,,,,4-1[8:1]/8-5[8:1],1/5,2/6,3/7,4/8,,,,3b/7b,,,,
{16}8bV24[8:1],7,6,5,8b,,,,
{16}2-6[8:1],,,,2/7h[4:1],,,,5,4,3,2,1b-5[8:1],,,,
{32}1,,,,7-1[8:1],,,,2-6[8:1],,,,7,,,,2,,,,,,,,
{16}5-8[8:1]/1-4[8:1],4/8,3/7,2/6,1/5,,,,
{8}2b/6b,,
{16}1bV75[8:1],2,3,4,1b,,,,
{32}1b,2p8[32:47]/8,3/7,4/6p4[32:45],5,,,,
{1},
{2},
{4},2h[2:1],1,
{8}6,7,8-5[8:1]*-3[8:1],,8,,
{8}2-8[8:1],7V58[4:1],2-4[8:1],7,2,,
{4}1w5[8:1],1,
{8}3,2,1>8[8:3],,1/5h[4:1],,,,
{8}2/4,1/8,7/5,1/8,7h[2:1],,8,,3,2,1>4[8:1]*<6[8:1],,1,,5-1[8:1],,5V71[8:1]*V31[8:1],,5b,,3/7-3[8:1],,7,1h[2:1],4,5,6,7,8V64[8:1],,8/2-6[8:1],1,2/7-4[8:1],8,7,,1<6[4:1]/2,,6>3[4:1],,8,1,2V84[4:1],,2,,7-1[8:1],2V41[4:1],7-5[8:1],2,7,,
{4}8-4[8:1]*w4[8:1],8,
{8}6,7,8<1[8:3],,8/4h[4:1],,,,2/4,1/8,7/5,1/8,2h[2:1],,1,,6,7,8<4[4:1],,
{16}8/4,3,2,1,8,7,6,5,4h[4:1]/8h[4:1],,,,,,,,
{16}3,4,3,6,5,6,3,4,2,6,5,7,
{16}1,2,3,7,6,5,2,3,4,8,7,6,
{32}1,2,3,4,5,6,7,8,
{8}1h[8:1],,
{32}8,7,6,5,4,3,2,1,8h[8:1],,,,,,,,
{32}1,2,3,4,5,6,7,8,1,2,3,4,5,6,7,8,1w5[8:1],,,,
{8}7/3,,,
