&title=Rosa azuL
&artist=lapix
&first=0.42
&des_5=Estabil1zar
&lv_5=14
&des=Estabil1zar
&shortid=8
&cabinet=SD
&inote_5=(155)
{4},,,4h[1:1],
{4},,,7b,
{16}5/6,,4,5h[8:1],,,2h[8:1],,4,3,,3,5,,1,,
{16}6h[8:1],,8,7h[8:1],,,5h[8:1],,{12}6,5,8,{16}1b,,,,
{16}4/3,,5,4h[8:1],,,7h[8:1],,5,6,,6,4,,8,,
{16}3h[8:1],,1,2h[8:1],,,4h[8:1],,1,2,3,4,5/6,,7/8,,
{16}1/6,,5,3,4h[8:1],,2,,2,1,,3,4,,1,,
{16}3/5,,2,1,3<7[4:1],4,1,,8,1,2,3,4b,,,,
{16}5/2,,1,7,8h[8:1],,6,,6,5,,7,8,,5,,
{16}7/1,,8,7,5>1[4:1],6,4,,8,7,6,5,4b,,3,,
{16}1/2,,3,3,5/4,,6,,8/7,,6,6,4/5,,3,,
{16}8/2,,2,3,4/8,,3,4,5/8,,4,5,6/8,,
{16}6,,6,5,4,3,2,1,8,7,5,6,1,2,6,7,2,3,
{16}4<3[8:3]/8,,,,,,,,,,,,8-4[8:1],,7h,,
{16}8b/3b,,,,1/2,,8,,3,4,3,4,2,2,5,,
{16}8,6,5,6,7h[4:1],,5,,5,6,7,8,5v8[8:1],4,3,2,
{16}5b/1b,,,,1,6,2,2,8,3,7,7,1,,2/8,,
{16}1/7b,6,5,,6/1b,2,3,8b,1/7,,3/5,,7/1-5[8:1],,2/6,,
{16}1b/7b,,,,8/7,,1,,6,5,6,5,7,7,4h[8:1],,
{16}8,7,6,5,1h,8h,7h,6h,2,1,8,7,2-6[8:1]/6,,3/5,,
{16}2b/6b,,,,7,5,6,6,1,4,2,5,3,6,2,,
{16}1-5[8:1]/6-8[8:1],,5/8,,,,,,4-1[8:1]*-7[8:1]/8,,,4,,,,,
{16}8bpp5[16:11],,,,2h[16:1],,,3h[16:1],
,,4h[16:4],,,,,,
{16}3,4,3,2,3h[8:1],,,,8-4[8:1],1,7,1,
8-2[8:1]*-6[8:1],,,,
{16}8b,,,,1,5,1,5,{24}2,6,2,6,2,6,
{16}3,7,{12}4,{8}8h[8:1],4h[8:1],1h[8:1],{32}5,,,1,8,7,6,,{24}4,3,2,,{16}8-4[8:1],7,6,5,
{16}4/8b,,,,3h[8:1]/5,,4,,6h[8:1]/4,,5,,4,7,4,7,
{16}3,8,3,8,2,1,2,1,2,1,1,8,2-5[8:1],1,1,8,
{16}2b,,,,7h[16:1]/8,,8/1h[16:1],,8,7,6,5,2h[8:1],,4h[8:1],,
{16}8,5,3,4,1,5,3,4,2,5,4,6,3,5,4,5,
{1}4pp7[2:3]*<2[2:3],
{1},
{1}5qq2[2:3],
{1}1<6[2:1],
{16}3,5,3,5,3,5,3,5,4,6,4,6,4,6,4,6,
{16}3,7,3,7,3,7,3,7,2,8,2,8,2,8,2,8,
{32}1,8,7,6,5,4,3,2,1,8,7,6,5,4,3,2,
8,1,2,3,4,5,6,7,8,1,2,3,4,5,6,7,
{16}1b,8b,,2b,7b,,3b,6b,,4b,5b,,4b,,,,
{16}1/7,,8,8/6h[8:1],,2,5,3,4/7,,2,2/8h[8:1],,4,7,5,
{16}4/6,,8,1,7^4[8:1],2,8,,7/3,,,,1/2,,4/7,,
{16}1/8,,3,4/2,,6,7/5,,7/8,,6,6/5,,3,3/4,,
{16}3/1,,5,7,,2,1,,8,8,3,3,5,5,1,1,
{16}5/3,,7,7/2h[8:1],,8,3,1,2/8,,6,6/4h[8:1],,8,3,7,
{16}2/6,,5,1,4-8[8:1],3,5,,2/4,,,,1/7,,2/6,,
{16}3/5,,4,,7/5,,6,,1/3,,2,,1/7,,8,,
{16}1h,8h,,2h,7h,,3h,6h,,4h,5h,,4b,,,,
{16}6V48[2:1]/3b,,6b/3h[16:10],,,,,,,,,,,,,,
{16}3V51[2:1]/6b,,3b/6h[16:10],,,,,,,,,,,,,,
{16}2-5[8:1],3,2,,,,7-4[8:1],6,7,,,,2-5[8:1],1,2,,
{16},,7-4[8:1],8,7,,,,1w5[8:1],,,,,,,,
{16}8-4[8:1],,,,8-6[8:1]/5-1[8:1],,,,
8^3[8:1]/5,,,,8/4,,,,
{16}1-5[8:1],,,,1-3[8:1]/4-8[8:1],,,,
1^6[8:1]/4,,,,1/5,,,,
{16}8/6,,1/7,,2/8,,3/1,,2,4,3,5,4,6,5,7,
{16}6<5[8:3],,,,,,,,,,,,8-4[8:1],,7h,,
{16}8b/3b,,,,3,4,4,4,3,5,5,5,4,6,6,6,
{16}3,5,5,5,2,4,4,4,1,3,3,3,8p4[8:1]*q4[8:1],,1/7,,
{16}8b,,,,3,{24}7,6,5,{16}2,6,4,4,4,5,3,3,3,
{16}6,4,4,4,7,5,5,5,8,6,6,6,8-4[8:1],7,7,7,
{16}8b,,,,2h[16:1]/4,,7h[16:1]/5,,3,5,5,5,4,6,6b,6,
{16}3,5,5,5,2,4,4b,4,1,3,3,3,1-5[8:1],8,2,8,
{16}1b,,,,8-4[8:1],1,7,1,8bw4[8:1],,,,,,,,
{16}3z7[2:1]/5s1[2:1],,,,,,,,,,,,,,,,
{16}2b/7b,,,,4/3,5/2h[8:1],,6,6/4V62[6:1],,,7,4/7,,,,
{16}5/3V51[6:1],5,,6,3/6,,,,4/2V48[6:1],4,,5,5/2,,,,
{16}2b/7b,,,,1/6,2/4,,8/3,7/5,,,5/3,7/1,,1,7,
{16}8,8,8,8,8,,2,8,1h,1h,1h,1h,2h,2h,2h,2h,
{16}1h[16:1]/2h[16:1],,8h[16:1]/7h[16:1],,6,1,4,3,6,5,7-1[8:1],5,6,5,7,,
{16}3,4,2-8[8:1],4,3,4,2,,5,4,6,3,1s5[8:1]/8z4[8:1],,,,
{16}1b/8b,,,,3,6,4h[16:1],5,{32}4/3b,2,1,8,7,6,5h[48:39],,
{24},,4,,3,,2,,1,,8,,7,,6,,,,4b,,,,,,4b-8[8:1],,,,,,{128}4bqq3[1:1],4?pp5[1:1],,,
E
