&title=B100d Hunter
&artist=DIVELA feat.いゔどっと
&first=0
&des=什血猎手
&clock_count=4
&lv_5=14
&inote_5=(164)
{8},,,,,,,,
{4},,,,
1z5[8:4]/8s4[8:4],,,,
{16}36,,7,8,,6,5b<3[16:15],,,,,,7,,,,
{8},,6,,,,{16}5,4,5,4,
{16}36,,2,1,
,3,4b>6[16:15],,{8},,2,,
{8},,3,,,,45,,
{16}3h[8:1],,5,3h[8:1],,6,2,,7h[8:1],,5,7h[8:1],,4,8,,
{16}2h[8:1],,8,2h[8:1],,7,3,,6h[8:1],,8,6h[8:1],,1,5,,
{16}3b,4,2,5,1,6,8,7,{32}1,2,3,4,5,6,7,8,1,2,3,4,5,6,7,8,
{8}1pp5[8:3]/6p4[8:3],,,,,,8b,,
{16}
12,,38,,2,1,,38,,1,2,,1,2,8,1,
7,,16,,7,8,,16,,8,7,,8,7,2,,
34,,25,,3,4,,25,,4,3,,5,3,7,5,
6,,47,,6,5,,47,,5,6,,4,4,5,5,
2,,3,4,3,4,,25,,4,3,,5,3,6,4,
7,,6,5,6,5,,47,,5,6,,3,5,1,8,
2,,2,4,,3,5,,4,6,,5,6,4,7,3,
8,,1,7,,3,5,,{32}1,2,3,4,5,6,7,8,1,2,3,4,5,6,7,8,
{8}1bq5[8:1],,1,7p3[8:1],,7,8,,
8q4[8:1],,8,6q2[8:1],,6,5,,
4q8[8:1],,4,2q6[8:1],,2,1,,
1p5[8:1],,1,3p7[8:1],,3,5,,
7-5[8:1],8,7,2-4[8:1],1,2,8,1,
7-4[8:1],8,7,1-5[8:1],7,1,7,8,
2-8[8:1],3,2,5-7[8:1],4,5,3,4,
3-7[8:1],5,3,5-1[8:1],3,5,2pp5[8:5],,
8b,,7,,6,,7,3,
{24}6,,,,5,,3,,,4,,,{8}7<5[8:1],,7O,,
,34,2-6[8:1],17,6<8[8:1]*>4[8:1],,,,
12,,47,,45,36,27,18,
{16}3h[8:1]/6h[8:1],,,45,,,2,1,3h[8:1]/8h[8:1],,,12,,,7,8,
1h[8:1]/6h[8:1],,,78,,,1,8,2h[8:1]/7h[8:1],,,18,,,1,8,
1b,8,2,7,3,6,4,5,4,5,3,6,2,7,1pp5[2:1]*p6[2:1],8,
{8},,,,,,2b,,
{16}4b/7b,,6,5,7,,3,4,1-4[16:1],,,1-6[16:1],,,1,,
{8},1,28,37,46,5,46,37,
1V35[4:1],,17,8,1V75[4:1],,14,2,
1V35[4:1],,15,7,1<6[8:1],,1b,,
{16}25,,3,4,2,,6,5,8-5[16:1],,,8-3[16:1],,,8,,
{8},78,16,25,3h[8:1]/4h[8:1],,2h[8:1]/6h[8:1],,
8V64[4:1],,28,1,8V24[4:1],,4V68[4:1],,
8>4[4:1],,5,,{16}6h[8:1],,,5h[8:1],,,7,,
{8}1b-5[8:1]/8b,2,1/7p3[8:1],6,7/2>5[8:1],1,2/8-4[8:1],1,
38,,3<6[8:1]/5-1[8:1],2,35,,8,,
3>8[8:1]/7,4,3/6-2[8:1],5,6/1q5[8:1],8,17,,
57,34,71,46,1v4[8:1]/5v8[8:1],,15,,
2-5[8:1],5-1[8:1],26,8,7-4[8:1],4-8[8:1],72,1,
3,,1-6[8:1]/3>8[8:1],4,13,,,78,
2b/6b,45,,2b/8b,57,34,{32}1b-4[16:1],,,,,,5b-8[16:1],,
{32},,,,3b-6[16:1],,,,,,7b-2[16:1],,,,,,{8}1bw5[16:4],,,,
{8},,,,,,,1b,
2b/7h[8:6],,,,,,,7b,
6b/1h[8:2],,,2b,3b/8h[8:2],,,7b,
{16}1b/6b,,,8b/3b,,,2b/5b,,,7b/4b,,,1b/8b,,,,
{16}1b/8b,,2/7,,1,8,1,8,1,2,3,4,8,7,6,5,
3,,25,,3,4,3,4,3,2,1,8,5,6,7,8,
2,,38,,3,4,5,3,4,5,3,4,6,5,6,5,
7,8,1,4,3,2,8,7,6,1,2,3,5,4,5,4,
8h[8:3],,,,,,,,7,8,7,8,6,1,6,1,
5,2,5,2,4,3,4,3,5h[4:1]/2h[4:1],,,,,,,,
{8}6h[16:1]/8h[16:1],3h[16:1]/4h[16:1],5h[16:1]/7h[16:1],1h[16:1]/2h[16:1],3h[16:1]/5h[16:1],6h[16:1]/7h[16:1],2h[16:1]/8h[16:1],4h[16:1]/5h[16:1],
2V48[16:5]/7V51[16:5],,,,,,27,,
{16}1b/8,1/8b,1b/8,1/8b,2b/7b,,,,3,6,4,5,8,7,1,6,
25,,25,,3,4,1,8,2,6,4,8,1b,7,3,6,
4b/5b,,45,,2,4,3b,7,5,6,1,8,1b,2b,3b,4,
6b,5,7,3,4,2,7,8,6b,2,1,3b,8,7,6b,5,
4,4,4,,4b,5,2,7,3,6,1,8,2,4,4,4,
2,5,5,5,2,6,6,6,2,8,8,8,2,7,7,7,
2,,7,,2,1,3,6,5,8,2,4,3,3,3,3,
2,4,1,7,5,8,3,4,1,6,4,1,2,2,2,2,
{8}1>8[8:28]/3,,,,,,4h[16:1],4h[16:1],
4h[16:1],,,,1,,2,,
3h[8:3],,,,4h[8:3],,,,
3h[8:3],,,,4h[8:3],,,,
8>7[16:29]/3,,,,,,4h[16:1],4h[16:1],
4h[16:1],,,,3,,2,,
1h[8:3],,,,26,,3qq8[16:9]/7qq4[16:9],,
37,,,,,,2b/6b,,
1b-5[8:1]/7b,6,1>4[8:1],4,1-6[8:1],6,1,5,
4b-8[8:1]/7b-2[8:1],,4b/7b,,{16}1b/3b,,,2b/8b,,,1b/7b,,
{8}6-1[8:1]/8-4[8:1],68,6b/8b,,8-6[8:1],3,8-4[8:1],2,
8<5[8:1],,8-3[8:1]/3-7[8:1],2,38,,15,,
1b-4[8:1]/3b,2,1-6[8:1]/7,8,1-4[8:1]/3,2,1-5[8:1]/7,7-3[8:1],
1>4[8:1],7<4[8:1],1-6[16:2],7,1,,,5-1[8:1]/6-2[8:1],
4b/7b,56,,3b/8b,27,16,{32}2b,3,4h[8:1],,,,7b,6,
{32}5h[8:1],,,,1b,2,3h[8:1],,,,8b,7,6,,,,{16}3,6,2,7,{24}1v4[16:3]*q5[16:3],8,1,8,1,8,
{32}1,,,,,,,,,,,,{8},{16}1,2,3,4,8,7,6,5,
8,7,6,5,1,8,7,6,{8}5h[4:1]/1h[4:1],,,,
{6}2h[6:1],6h[6:1],4h[6:1],8h[6:1],2h[6:1],6h[6:1],
{6}1h[6:1],7h[6:1],3h[6:1],{8}5h[4:1],,3b,,
{16}3b,4,3,5b,4,5,3b,,6b,5,6,4b,5,4,6b,,
{16}2b,4,3,6b,4,5,2b,,7b,5,6,3b,5,4,7b,,
{16}2b,5,3,4,2,6,1,8,{32}1,2,3,4,5,6,7,8,15,4,3,2,1,8,7,6,
{8}1h[8:1]/5,,{16}1,5,3,7,2-7[8:1],6-3[16:21]*-3[16:21],4,8,{8}2b,,
{8},,,,,,,,,,,,,,,,
E
