&title=ゆるふわ菩薩ガール
&artist=zakooon
&first=0.00
&lv_1=2
&lv_2=4
&lv_3=6
&lv_4=10+
&lv_5=12
&des_1=Tane
&des_2=Tane
&des_3=Tane
&des_4=Tane
&des_5=Tane
&des=Tane
&inote_5=
(160){1},
{16}2h[16:3],,,3h[16:3],
,,4h[16:4],,
,,5,,
6,,7,,
{16}7h[16:3],,,6h[16:3],
,,5h[16:4],,
,,4,,
3,,2,,
{16}1h[16:3],,,3h[16:3],
,,4h[16:4],,
,,5,,
6,,7,,
{16}8h[16:3],,,6h[16:3],
,,5h[16:4],,
,,4,,
3,,2,,
{16}1,,2,,
43,,3,4,
3,,5,,
68,,,,
{16}8,,7,,
56,,6,5,
6,,4,,
13,,,,
{16}18,,2,,
36,,5,4,
5,,36,,
72,,,,
{4}1p8[2:1]/8<1[2:1],,,,
{16}82,,,13,
,,2^5[4:1]/4,,
,,2/5>1[8:1],,
,,,,
{16}7,,,86,
,,7^4[4:1]/5,,
,,7/4<8[8:1],,
,,,,
{16}2,,,28,
,,1^6[4:1]/7,,
,,6<2[8:1]/1,,
,,,,
{16}5,,,71,
,,8^3[4:1]/2,,
,,3>7[8:1]/8,,
,,,,
{16}4,,,75,
,,4/6^3[4:1],,
,,3<7[8:1]/6-1[8:1],,
,,,,
{16},,,24,
,,5/3^6[4:1],,
,,6>2[8:1]/3-8[8:1],,
,,,,
{16},,,17,
,,8^5[4:1]/6,,
,,5<1[8:1]/8-3[8:1],,
,,,,
{16},,,82,
,,1^4[4:1]/3,,
,,4>8[8:1]/1,,
,,,,
{16}5,,6,5,
6,,3,4,
3,,12,,
78,,56,,
{16}7,5,6,,
2,4,3,,
12,,7,,
56,,3,,
{16}34,,3,4,
3,,6,5,
6,,87,,
21,,43,,
{16}2,4,3,,
7,5,6,,
87,,2,,
43,,6,,
{16}87,,7,8,
7,,2,1,
2,,43,,
65,,87,,
{16}6,8,7,,
3,1,2,,
43,,6,,
87,,2,,
{16}12,,2,1,
2,,7,8,
7,,56,,
34,,12,,
{16}3,1,2,,
6,8,7,,
56,,3,,
12,,7,,
{16}82,,,13,
,,2-5[4:1]/4,,
,,2/5>1[8:1],,
,,,,
{16}7,,,86,
,,7-4[4:1]/5,,
,,7/4<8[8:1],,
,,,,
{16}2,,,28,
,,1-6[4:1]/7,,
,,6<2[8:1]/1,,
,,,,
{16}5,,,71,
,,8-3[4:1]/2,,
,,3>7[8:1]/8,,
,,,,
{16}4,,,75,
,,4/6-3[4:1],,
,,3<7[8:1]/6,2,
1,8,,,
{16}1,,,24,
,,5/3-6[4:1],,
,,6>2[8:1]/3,7,
8,1,,,
{16}7,,,86,
,,7-4[4:1]/5,,
,,4<8[8:1]/7,3,
2,1,,,
{16}2,,,13,
,,2-5[4:1]/4,,
,,5>1[8:1]/2,6,
7,8,,,
{16}7,,2,1,
2,,7,8,
7,,47,,
52,,38,,
{16}3,1,2,,
6,8,7,,
47,,6,,
2,,38,,
{16}16,,7,8,
7,,2,1,
2,,25,,
47,,16,,
{16}6,8,7,,
3,1,2,,
25,,3,,
7,,16,,
{16}25,,3,4,
3,,6,5,
6,,16,,
38,,25,,
{16}2,4,3,,
7,5,6,,
16,,7,,
3,,25,,
{16}47,,6,5,
6,,3,4,
3,,38,,
16,,47,,
{16}7,5,6,,
2,4,3,,
38,,2,,
6,,47,,
{4}1^4[8:1],5^2[8:1],1^4[8:1],5,
{16}8,,7,5,
6,,6,4,
5,,34,,
25,,37,,
{4}8^5[8:1],4^7[8:1],8^5[8:1],4,
{16}1,,2,4,
3,,3,5,
4,,65,,
74,,62,,
{4}1^4[8:1],1/8^5[8:1],8/1^4[8:1],18,
{16}27,,7,5,
6,,2,4,
3,,45,,
36,,27,,
{16}18,,2,1,
2,,7,8,
7,1,8,1,
8,,18,,
{8}1b/5b,4b/6b,4b/8b,3b/5b,
2b/7b,,45,36,
{16}2,8,1,,
8,1,7,,
2,7,2,,
1^4[8:1]/8,,7,,
{8}1/6^1[8:1],,6/1w5[8:1],,1,,45,36,
{16}2,5,4,,
7,4,5,,
3,6,3,,
4/5^8[8:1],,3,,
{8}5/2^5[8:1],,5w1[8:1]/2,,5,,1,28,
{16}3,7,1,,
6,2,8,,
1,8,1,,
5qq5[2:1]*pp5[2:1],,,,
{16},,,,
,,,,
,,5,,
4,,3,,
{16}2^5[8:1],,,,
2,,8,,
7^4[8:1],,,,
7,,1,,
{16}2,,,35,
,,46,,
,,,,
45,,36,,
{16}7,1,8,,
1,8,2,,
7,2,7,,
8^5[8:1]/1,,2,,
{8}8/3^8[8:1],,3/8w4[8:1],,8,,54,63,
{16}7,4,5,,
2,5,4,,
6,3,6,,
5/4^1[8:1],,6,,
{8}4/7^4[8:1],,4w8[8:1]/7,,4,,1,28,
{16}6,2,8,,
3,7,1,,
8,1,8,,
7pp4[2:1],,1,,
{16}7,,2,2,
,3,3,,
,,,,
6,,5,,
{8}4^7[8:1],3,2,1,
8,7,6qq8[2:1],5,
{16}64,,3,3,
,2,2,,
,,,,
18,,36,,
{16}2,7,1,7,
1,8,2,8,
2,7,2,,
1-5[8:1]/8,,7,,
{8}1b/5^8[8:1]*^2[8:1],,5w1[8:1],,5b,,45,27,
{16}3,5,4,5,
4,6,3,6,
4,5,4,,
4/5-1[8:1],,3,,
{8}5-7[8:1]/1-3[8:1],,1-5[8:1]/5,,18,,1,37,
{16}2,7,1,8,
2,8,1,7,
1,8,1,,
4pp4[2:1]*qq4[2:1],,35,,
{16}4,,,,
,,,,
,,45,,
45,,36,,
{16}7^5[8:1],,7,,
2^4[8:1],,2,,
8^5[8:1],,8,,
1-5[8:1],,1,,
{16}1pp5[8:3]/5pp1[8:3],,,,
,,,,
,,,,
48,,36,,
{16}7,2,8,2,
8,1,7,1,
7,2,7,,
8-4[8:1]/1,,2,,
{8}8b/4^1[8:1]*^7[8:1],,4w8[8:1],,4b,,54,72,
{16}6,4,5,4,
5,3,6,3,
5,4,5,,
5/4-8[8:1],,6,,
{8}4-2[8:1]/8-6[8:1],,8-4[8:1]/4,,81,,8,62,
{16}7,2,8,1,
7,1,8,2,
8,1,8,,
5pp4[2:1],,4,,
{16}5,,3,3,
,2,2,,
,,54,,
54,,63,,
{16}2-4[8:1],,2,,
7-5[8:1],,7,,
1-4[8:1],,1,,
8-5[8:1],,8,,
{16}8p4[8:1]/4p8[8:1],,,,
,,,,
,,5,,
15,,1,,
{16}8,,,13,
,,2v5[4:1]/4,,
,,2/5>1[8:1],6,
7,8,,,
{16}7,,,86,
,,7v4[4:1]/5,,
,,7/4<8[8:1],3,
2,1,,,
{16}2,,,31,
,,2v7[4:1]/8,,
,,7>3[8:1]/2,6,
5,4,,,
{16}6,,,68,
,,7v2[4:1]/1,,
,,2<6[8:1]/7,3,
4,5,,,
{16}4,,,82,
,,4/6-3[4:1],,
,,3<7[8:1]/6-1[8:1],2,
1,8,,,
{16},,,17,
,,5/3-6[4:1],,
,,6>2[8:1]/3-8[8:1],7,
8,1,,,
{16},,,13,
,,7-4[4:1]/5,,
,,4<8[8:1]/7-2[8:1],3,
2,1,,,
{16},,,68,
,,2-5[4:1]/4,,
,,5>1[8:1]/2-7[8:1],6,
7,8,,,
{1},,,,,,,,E
&inote_4=
(160){1},
{16}2h[4:3],,,,
3,,,,
4,,,,
5,,,,
{16}7h[4:3],,,,
6,,,,
5,,,,
4,,,,
{16}1h[4:3],,,,
3,,,,
4,,,,
5,,,,
{16}8h[4:3],,,,
6,,,,
5,,,,
4,,,,
{16}2h[4:3],,,,
3,,,,
5,,,,
6,,,,
{16}7h[4:3],,,,
6,,,,
4,,,,
3,,,,
{16}1h[4:3],,,,
3,,,,
5,,,,
7,,,,
{16}8h[4:3],,,,
6,,,,
4,,,,
2,,,,
{16}2h[16:6],,,3,
,,4,,
,,5,,
4,,6,,
{16}7h[16:6],,,6,
,,5,,
,,4,,
5,,3,,
{16}1h[16:6],,,3,
,,4,,
,,5,,
4,,7,,
{16}8h[16:6],,,6,
,,5,,
,,4,,
5,,2,,
{16}2h[16:6],,,3,
,,5,,
,,6,,
5,,6,,
{16}7h[16:6],,,6,
,,4,,
,,3,,
4,,3,,
{16}1h[16:6],,,3,
,,5,,
,,7,,
5,,7,,
{16}8h[16:6],,,6,
,,4,,
,,2,,
4,,2,,
{8}2-4[8:1],2,6,,
7-5[8:1],7,3,,
{8}34,,56,,
78,,12,,
{8}2-8[8:1],2,6,,
5-7[8:1],5,1,,
{8}12,,34,,
56,,78,,
{8}7-5[8:1],7,3,,
2-4[8:1],2,6,,
{8}65,,43,,
12,,78,,
{8}7-1[8:1],7,3,,
4-2[8:1],4,8,,
{8}87,,65,,
43,,21,,
{16}2h[16:6],,,3,
,,1,,
,,8,,
1,,8,,
{16}7h[16:6],,,6,
,,8,,
,,1,,
8,,1,,
{16}3h[16:6],,,4,
,,1,,
,,8,,
1,,7,,
{16}6h[16:6],,,5,
,,8,,
,,1,,
8,,2,,
{16}2h[16:6],,,3,
,,1,,
,,6,,
8,,6,,
{16}7h[16:6],,,6,
,,8,,
,,3,,
1,,3,,
{16}3h[16:6],,,4,
,,1,,
,,7,,
8,,7,,
{16}6h[16:6],,,5,
,,8,,
,,2,,
1,,2,,
{8}2-4[8:1],2,5,6,
7-5[8:1],7,4,3,
{8}34,5,6,,
78,1,2,,
{8}2-8[8:1],2,7,6,
5-7[8:1],5,8,1,
{8}12,3,4,,
56,7,8,,
{8}7-5[8:1],7,4,3,
2-4[8:1],2,5,6,
{8}65,4,3,,
21,8,7,,
{8}7-1[8:1],7,2,3,
4-2[8:1],4,1,8,
{8}87,6,5,,
43,2,1,,
{4}1^4[8:1],8^5[8:1],1^4[8:1],8,
{8}7,6,5,,
3,2,1,,
{4}8^5[8:1],1^4[8:1],8^5[8:1],1,
{8}2,3,4,,
6,7,8,,
{4}4^1[8:1]/5^8[8:1],,4^1[8:1]/5^8[8:1],,
{8}1,2,3,,
8,7,6,,
{8}4,4,5,5,
3,3,6,6,
{8}27,27,1b/8b,1b/8b,
1b/8b,,3,2,
{8}1^4[8:1],1,8^5[8:1],8,
2-7[8:1],2,6-3[8:1],6,
{8}1w5[8:1],,,,
8w4[8:1],,,,
{8}4^1[8:1],4,5^8[8:1],5,
3-6[8:1],3,7-2[8:1],7,
{8}4w8[8:1],,,,
5w1[8:1],,,,
{8}7v5[8:1],7,3v1[8:1],3,
6v8[8:1],6,2v4[8:1],2,
{16}5pp5[4:1]*qq5[4:1],,,,
,,,,
,,5,,
4,,3,,
{8}3,3,34,34,
6,6,56,56,
{8}4pp1[8:3]/5qq8[8:3],,,,
,,6,7,
{8}8^5[8:1],8,1^4[8:1],1,
7-2[8:1],7,3-6[8:1],3,
{8}8w4[8:1],,,,
1w5[8:1],,,,
{8}5^8[8:1],5,4^1[8:1],4,
6-3[8:1],6,2-7[8:1],2,
{8}5w1[8:1],,,,
4w8[8:1],,,,
{8}2v4[8:1],2,6v8[8:1],6,
3v1[8:1],3,7v5[8:1],7,
{16}4qq3[4:1]*pp5[4:1],,,,
,,,,
,,,,
5,,6,,
{8}6,6,75,75,
3,3,42,42,
{8}2V84[8:3]/7V15[8:3],,,,
,,3,2,
{8}1v4[8:1],1,5v7[8:1],5,
3v8[8:1],3,6-2[8:1],6,
{8}1^4[8;1]*^6[8:1],,,,
5w1[8:1],,,,
{8}4v1[8:1],4,8v6[8:1],8,
2v5[8:1],2,7-3[8:1],7,
{8}4w8[8:1],,,,
8^3[8;1]*^5[8:1],,,,
{8}5^8[8:1],5,2^5[8:1],2,
7^2[8:1],7,4^7[8:1],4,
{16}8p4[4:1]*q4[4:1],,,,
,,,,
,,4,,
3,,2,,
{8}2,2,12,12,
7,7,78,78,
{8}1qq4[8:3]/8pp5[8:3],,,,
,,6,7,
{8}8v5[8:1],8,4v2[8:1],4,
6v1[8:1],6,3-7[8:1],3,
{8}8^5[8;1]*^3[8:1],,,,
4w8[8:1],,,,
{8}5v8[8:1],5,1v3[8:1],1,
7v4[8:1],7,2-6[8:1],2,
{8}5w1[8:1],,,,
1^6[8;1]*^4[8:1],,,,
{8}4^1[8:1],4,7^4[8:1],7,
2^7[8:1],2,5^2[8:1],5,
{16}1q5[4:1]*p5[4:1],,,,
,,,,
,,5,,
6,,7,,
{8}7,7,86,86,
2,2,31,31,
{8}3V51[8:3]/6V48[8:3],,,,
,,,,
{16}2h[16:6]/7,,,1,
,,3,,
,,4,,
35,,6,,
{16}7h[16:6]/2,,,8,
,,6,,
,,5,,
64,,3,,
{16}1h[16:6]/6,,,8,
,,3,,
,,5,,
46,,7,,
{16}8h[16:6]/3,,,1,
,,6,,
,,4,,
53,,2,,
{16}1h[16:6]/7,,,2,
,,4,,
,,5,,
46,,3,,
{16}8h[16:6]/2,,,7,
,,5,,
,,4,,
53,,6,,
{16}1h[16:6]/8,,,3,
,,5,,
,,6,,
47,,2,,
{16}8h[16:6]/1,,,6,
,,4,,
,,3,,
52,,7,,
{1},,,,,,,,E
&inote_3=
(160){1},
{16}2,,,,
,,,,
4,,,,
,,,,
{16}7,,,,
,,,,
5,,,,
,,,,
{16}1,,,,
,,,,
4,,,,
,,,,
{16}8,,,,
,,,,
5,,,,
,,,,
{16}2,,,,
,,,,
5,,,,
,,,,
{16}7,,,,
,,,,
4,,,,
,,,,
{16}1,,,,
,,,,
5,,,,
,,,,
{16}8,,,,
,,,,
4,,,,
,,,,
{2}3h[4:2],4,
{2}6h[4:2],5,
{2}2h[4:2],4,
{2}7h[4:2],5,
{2}3h[4:2],4,
{2}6h[4:2],5,
{2}1h[4:2],4,
{2}8h[4:2],5,
{4}2,2,
7,7,
{2}34,56,
{4}2,2,
5,5,
{2}34,56,
{4}7,7,
2,2,
{2}65,43,
{4}7,7,
4,4,
{2}65,43,
{2}3h[4:2],5,
{2}6h[4:2],4,
{2}2h[4:2],5,
{2}7h[4:2],4,
{2}3h[4:2],5,
{2}6h[4:2],4,
{2}1h[4:2],5,
{2}8h[4:2],4,
{4}3,3,
6,6,
{2}21,87,
{4}3,3,
8,8,
{2}21,87,
{4}6,6,
3,3,
{2}78,12,
{4}6,6,
1,1,
{2}78,12,
{2}18,45,
{4}3,3,6,6,
{2}45,18,
{4}2,2,7,7,
{1}4^1[2:1]/5^8[2:1],
{4}1,1,8,8,
{4}4,5,
3,6,
{4}2b/7b,1b/8b,1b/8b,,
{4}1,12,8,78,
{4}18,27,36,,
{4}4,43,5,65,
{4}45,36,27,,
{4}2,12,7,78,
{4}18,27,36,,
{2}3h[4:1],6h[4:1],
{4}45,36,27,,
{4}8,87,1,21,
{4}81,72,63,,
{4}5,56,4,34,
{4}54,63,72,,
{4}7,87,2,21,
{4}81,72,63,,
{2}6h[4:1],3h[4:1],
{4}54,63,72,,
{4}12,12,78,78,
{4}18,27,36,,
{4}43,43,56,65,
{4}45,36,27,,
{4}21,12,78,78,
{4}18,27,36,,
{2}3h[4:1],6h[4:1],
{4}45,36,27,,
{4}87,87,21,21,
{4}81,72,63,,
{4}56,56,43,34,
{4}54,63,72,,
{4}78,87,21,21,
{4}81,72,63,,
{2}6h[4:1],3h[4:1],
{4}54,63,72,,
{2}2h[4:2],8,
{2}7h[4:2],1,
{2}3h[4:2],8,
{2}6h[4:2],1,
{2}2h[4:2],8,
{2}7h[4:2],1,
{2}4h[4:2],8,
{2}5h[4:2],1,
{1},,,,,,,,E
&inote_2=
(160){1},
{16}2,,,,
,,,,
,,,,
,,,,
{16}7,,,,
,,,,
,,,,
,,,,
{16}1,,,,
,,,,
,,,,
,,,,
{16}8,,,,
,,,,
,,,,
,,,,
{16}2,,,,
,,,,
,,,,
,,,,
{16}7,,,,
,,,,
,,,,
,,,,
{16}1,,,,
,,,,
,,,,
,,,,
{16}8,,,,
,,,,
,,,,
,,,,
{2}3h[4:2],,
{2}6h[4:2],,
{2}2h[4:2],,
{2}7h[4:2],,
{2}3h[4:2],,
{2}6h[4:2],,
{2}1h[4:2],,
{2}8h[4:2],,
{4}2,,
7,,
{2}34,56,
{4}2,,
5,,
{2}34,56,
{4}7,,
2,,
{2}65,43,
{4}7,,
4,,
{2}65,43,
{2}3h[4:2],,
{2}6h[4:2],,
{2}2h[4:2],,
{2}7h[4:2],,
{2}3h[4:2],,
{2}6h[4:2],,
{2}1h[4:2],,
{2}8h[4:2],,
{4}3,,
6,,
{2}21,87,
{4}3,,
8,,
{2}21,87,
{4}6,,
3,,
{2}78,12,
{4}6,,
1,,
{2}78,12,
{2}18,45,
{4}3,,6,,
{2}45,18,
{4}2,,7,,
{1}4^1[2:1]/5^8[2:1],
{4}1,,8,,
{4}4,5,
3,6,
{4}2b/7b,,1b/8b,,
{4}1,,8,,
{4}18,,36,,
{4}4,,5,,
{4}45,,27,,
{4}2,,7,,
{4}18,,36,,
{2}3h[2:1],,
{4}45,,27,,
&inote_1=
(160){1},
{16}2,,,,
,,,,
,,,,
,,,,
{16}7,,,,
,,,,
,,,,
,,,,
{16}1,,,,
,,,,
,,,,
,,,,
{16}8,,,,
,,,,
,,,,
,,,,
{16}2,,,,
,,,,
,,,,
,,,,
{16}7,,,,
,,,,
,,,,
,,,,
{16}1,,,,
,,,,
,,,,
,,,,
{16}8,,,,
,,,,
,,,,
,,,,
{2}3h[4:2],,
{2}6h[4:2],,
{2}2h[4:2],,
{2}7h[4:2],,
{2}3h[4:2],,
{2}6h[4:2],,
{2}1h[4:2],,
{2}8h[4:2],,
{4}2,,
,,
{2}34,,
{4}2,,
,,
{2}34,,
{4}7,,
,,
{2}65,,
{4}7,,
,,
{2}65,,
{2}3h[4:2],,
{2}6h[4:2],,
{2}2h[4:2],,
{2}7h[4:2],,
{2}3h[4:2],,
{2}6h[4:2],,
{2}1h[4:2],,
{2}8h[4:2],,
{4}3,,
,,
{2}21,,
{4}3,,
,,
{2}21,,
{4}6,,
,,
{2}78,,
{4}6,,
,,
{2}78,,
{2}18,,
{4}3,,,,
{2}45,,
{4}2,,,,
{1}45,
{4}1,,,,
{4}4,,
,,
{4}2b/7b,,,,
{4}1,,,,
{4}18,,,,
{4}4,,,,
{4}45,,,,
{4}2,,,,
{4}18,,,,
{2}3,,
{4}45,,,,
{4}8,,,,
{4}81,,,,
{4}5,,,,
{4}54,,,,
{4}7,,,,
{4}81,,,,
{2}6,,
{4}54,,,,
{4}12,,,,
{4}18,,,,
{4}43,,,,
{4}45,,,,
{4}21,,,,
{4}18,,,,
{2}3,,
{4}45,,,,
{4}87,,,,
{4}81,,,,
{4}56,,,,
{4}54,,,,
{4}78,,,,
{4}81,,,,
{2}6,,
{4}54,,,,
{2}2h[4:2],,
{2}7h[4:2],,
{2}3h[4:2],,
{2}6h[4:2],,
{2}2h[4:2],,
{2}7h[4:2],,
{2}4h[4:2],,
{2}5h[4:2],,
{1},,,,,,,,E
