&title=英雄主义
&artist=在虚无中永存
&first=0
&des=differ vs CupLid
&des_5=differ vs CupLid
&lv_5=13
&inote_5=(118){4}8-4[8:1]/1-5[8:1],1/8,{16}3,5,4,6,2,2,7,7,
{4}4b>1[8:1]*<7[8:1],4,{8}2/8h[8:1],3,7/1h[8:1],6,
3v8[8:1],{24}1,2,,{8}3,6,{16}6,5,7,7,3,4,2,2,
6,8,7,7,3,1,2,2,{4}8-6[8:1],8/1-5[8:1],
1/2-4[8:1],2/6,{16}3,4,2,2,8,5,6,6,
1,4,3,3,{8}7h[8:1],5-8[8:1],{24}7,8,,{8}5,1,2/7,
,4/3h[4:1],5,6,{4}5/7h[4:1],1h[4:1],
5h[4:1],{8}2-6[8:1],1,{4}8b/2,8-3[8:1]*-5[8:1],
8b,6/2,{16}1,7,2,6,1,7,3,5,
1,4,3,3,8,5,6,6,{8}1,2/4,3/5,4/6,
7/5,8/6,7/1,8/1,{24}1b/2,3,{48},,,,,{16}4/6h[16:3],,,{8}5,
{24}7/8b,6,{48},,,,,{16}5/3h[16:3],,,{8}4,{24}7qq8[8:3]/3qq4[8:3],8/4,,,,,,,,,,,,,,,,,{8}6/5w1[8:1],
3/4,{4}5b,7/3-5[8:1],
7,6-2[8:1],2,3-7[8:1],
8,{8}2/1w5[8:1],8/7,{4}1,3/7-1[8:1],
3,2-6[8:1],6,7-3[8:1],
1<6[8:1]*>4[8:1],1,{8}2h[8:1],{16}4,4,{8}3h[8:1],{16}5,5,
{8}4h[8:1],6,5/6,4/3,7h[8:1],{16}5,5,{8}6h[8:1],{16}4,4,
{8}5h[8:1],3,4/3,5/6,3h[8:1],{16}5,4,{8}7h[8:1],{16}5,6,
{8}2h[8:1],5,3/7-4[8:1],{16}8,8,{8}7/1-5[8:1],2,1/8,6,
4h[8:1],{16}7,7,{8}5h[8:1],{16}2,2,{8}4h[8:1],{16}6,6,{8}3h[8:1],{16}8,8,
{8}2h[8:1],4,5-1[8:1],6,5/7,{16}8,8,{8}2h[8:1],{16}6,6,
{8}4h[8:1],1,8-4[8:1],7,8/6,{16}5,5,{8}3h[8:1],{16}1,1,
{8}4h[8:1],7,5/3,{16}4,6,{8}2-5[8:1],2,7-3[8:1],7,
1-6[8:1],2-5[8:1],1,2,7,8/7,1/2,3/4,
5/1w5[8:1],3/7,{4}1,{16}3,2,1,8,5,6,7,8,
2,4,3,5,4,7,2,6,1,2,3,4,7,6,5,4,
2,8,3,6,2,4,3,6,2,3,4,5,8,7,6,5,
1,6,2,5,3,7,4,6,1b,2,3,4,8b/5,7,6,5,
{8}2/4,1/2,8/7,6/5,{16}4b,3,2,1,4/8,7,6,5,
4/8b,1,2,3,8/4,5,6,7,8/2,2,4,3,7,7,5,6,
2,2,4,4,1,1,6,6,{4}3h[4:1],{8}5,6h[4:1]/2h[4:1],
,,{4}8-6[8:1]/4-2[8:1],8/4,1/5h[4:1],
{8}3,6/4,3/4,2/1,{4}8/7,{24}8qq4[8:3]/1pp5[8:3],2/7,,,,,,,,,,,,,,,,,{4}8/1,
6/5,
1/8,3/4,{8}7/5-1[8:1],4,{4}3/5,
2V46[8:1],2/1,{8}7b/5,7,7/4,7,
2/6,2,2/5,2,3/4,5/6,8/3,2/1<4[4:1],
,,{4}3,{2}2h[2:1],
7,{32}5b,4b,{48}5b,4bw8[12:11],{1},{4},{16},,{48},{4}7,
2,{8}7/3>8[8:1],6,5,4,
2/6<1[8:1],3,4,5,3/7h[8:1],5h[16:1],6/2h[8:1],4h[16:1],
8/7h[8:1],5h[16:1],1/2h[8:1],4h[16:1],{4}3-1[8:1]/7-5[8:1],3/7,
4-7[8:1]/8v3[8:1],8/4,{2}1h[2:1],
{4}5w1[8:1],5,{8}3-5[8:1],{16}8,8,{8}3-1[8:1],{16}6,6,
{8}3,5h[16:1],2/8,4h[16:1],6-4[8:1],{16}1,1,{8}6-8[8:1],{16}3,3,
{8}6,4h[16:1],7/1,5h[16:1],2-5[8:1],{16}6,6,{8}2-6[8:1],{16}8,8,
{8}2,7,8/2-6[8:1],{16}1,1,{8}2/7<4[8:1],8,7/1,2,
3-7[8:1],{16}5,5,{8}3-8[8:1],{16}6,6,{8}3,{16}7,6,{8}3/5-1[8:1],{16}1-6[8:1],1,
{8}5,3,2>5[8:1],7/5-1[8:1],1,{16}8,7,{8}6<1[8:1],{16}1-5[8:1],2,
{8}3,4,2,8/2,4h[8:1],{16}6,5,{8}7h[8:1],{16}3,5,
{8}1,3/7,1/5,{16}3,4,{8}5/1,3/7,6/5,4/3,
6/2>5[8:1],4/8<5[8:1],2,8,1,2/4,3/5,4/6,
7b/8b,2b/1b,{4}3b/6b,{32}1/5,2,3,4,5,6,7,8,1/6,5,4,3,2,1,8,7,
{16}6/2,2,5,5,{8}1w5[8:1],7/3,{4}1b,3/7,
2/5,{8}1/8,{16}5/7,6/4,{2}5/3s7[4:7],
{1},{4},{8},{16}8,
8,{2}8-4[8:1],
E
