&title=乙女解剖 (TeddyLoid Alllies Remix)
&artist=DECO*27
&first=0.02
&des=Aza
&lv_5=14
&inote_5=(69)
{2},3h[4:1]/E1/B1/B8,2h[4:1]/E6,1h[4:1]/E4,2>6[16:3]/8h[4:1],{16}7-3[8:1],8,6,1,,2,2,,3-8[8:1],4,2,5,,6,6,,5-1[8:1],4,6,3,,2,2,,{4}3s7[8:1]/7,,
{8}5-7[16:1]/2h[4:1],4,{16}5,3,2,1h[8:1]/8,,2h[8:1],,3h[8:1],4,6h[8:1],5,4,{8}7h[4:1]/4-2[16:1],5,{16}4,6,7,8h[8:1]/1,,7h[8:1],,6h[8:1],5,3h[8:1],4,4,2>5[8:1],,5-1[8:1],,2,6,7,{8}8p4[8:1],4p8[8:1],8<4[8:1],8>4b[8:1],{16}4w8b[4:1],{2},
{16}2x/6x,2/6,4/8-4[16:1],2/6,1/5,3/7,{32}1/8b,Cf,{16},2>6[8:1]/5,,1/6q4[8:1],,2/5h[16:3],,,,8pp3[8:1],1,7h[8:1],,,,{64}E5,B5,B6,E7,{16},4/7<3[8:1],,3p5[8:1]/8,,4h[16:3]/7,,,,,3,{32}2/4,2/4,,,5/6,,4/7,,{32}1/8,2x,3,4,
{8}5v2-4[8:1]/8,4V61[8:1]/7,5/2h[16:3],,{16}3pp6[8:1],4,8h[8:1],,,,{64}A7,D8,A8,D1,{16},{8}1/4v7-5[8:1],2/5V38[8:1],4/7h[16:3],,{16},3/7,1-5[16:1]/5,3/7,4/8,2/6,1b/8,,
{8}7-3[16:1]/A6/B6,A2/B2,{16}7,8<5[16:1],1,2h[8:1],,8,4,3h[8:1],,2,1/4,3/8,2-6[16:1]/B7/A7,,A3/B3,,2,1>4[16:1],8,7h[8:1],,1,5s1[8:1],6h[8:1],,,,,{24}7,4h,2,5h,8,3h,6,1h,4,1h,2h,3h,{32}7,1,6,2,5hx[16:1],,1-5[16:1],,8,2,7,3,6h[8:1],,{16}1,,3/4,4<7[16:1]/2,5x,1h[8:1],,4,2,3,{8}8x/4h[8:1],6h[4:1],{16}A1/B1,A5/B5,,
{8}7q4[8:1]/8,4q1[8:1]/5,{16}7,1,2>5[16:1],3h[8:1],,8,2,7h[8:1],,8,4/6,3/5,1/2p5[8:1],,4/5p8[8:1],,2,8,7,6h[4:1],,A7/B7,,A3/B3,,,Ch[8:1],,{24}6,8h,4,2h,7,5h,1,8,7,6/4h,3h,2h,{32}1h/7qq4[8:1],,3,4,3qq8[8:1],,{16}2/5,,,,,,5/6,5>2[16:1]/7,4x,8h[8:1],,5,7>2[16:1],,3<6[16:1],,7,,3,8h[8:1],,
{8}1b,{24}2,3,4,2,3,4,2-8[16:1],,4x/5x,6h[8:1],,,2,7,6,5,7,6,5-1[16:1],,A3/A7,4h[8:1],,,5,3,2,1/8,7,6,5/3,2,1,6/8-4[16:1],,,2h[8:1],,7,{8}8x,{32},,3x,4x,2>5[16:1]/5,,,7,8qq3[8:1],,6h[16:3],,{8}2xpp6<5b[2:1],,Cf,,,,{16},4/8,3/7,2/6,1h[16:3]/5-8>1-4<5<5[2:3],6x,7x,8x,
{1}E1/B1/B8/B7/B5/B4/B2/A3/A6/E7/E3/E6/E4/Cf,{2}6h[8:3],{16}7h[16:3],,,8,1h[8:1],6,5h[8:1],2,{8}3-7[8:1],E6,C,E2,8<5[8:1],E5,C,E1,1>4[8:1],E4,C,E8,7p6[8:1]/Ch[4:1],,,8hx[16:1],1b/7b,1,1,1,2/B5/B6/E6,2,{16}2,{32},3,4,3,4,3,{8}5,5,5,5,6/B1/B2/E2,6,{32}6,,,7,8,6,1,7,{16}8x,8,1x/C,1,7x/C,7,2x/C,2,6x/C,{32}6,5,6,,3,4,{16}3x,2/E5,1x,8/E4,{32}7x,5,6,4,7,3,8,2,5s1b[8:1],3,7,1,6,4,8,2,{16}5,2,3,4,5xv2[16:1]*v8[16:1],1,3xv5[16:1]/7xv1[16:1],,
{32}5b,Cf,,,3b/7b,Cf,,,2h[8:1]/6-1[16:1],,,3,3-7[16:1],,4x/8x,,{8}6bx/2bx,3bx/5bx,8h[8:1],{64}5x,4x,3x,2x,1x,8x,7x,6x,{8}5x-1[16:1]/1b,3h[8:1]/4,{32}5<8[16:1],,,4,4,,2x/8x,,5bx,,{64}2x,3,4,5,1x,2,3,4,8x,1,2,3,{32}4x/7x,{64}6,5,6,5,6,5,{8}6b,
{8}3p1[8:1]/4,1<4[8:1]/8,3/7h[8:1],,{16}8<6[16:1]*>2[16:1],4hbx[32:1]/6hbx[32:1],5w1[16:1]/3hbx[32:1],2hbx[32:1]/4hbx[32:1],{8}8b,5b,3/7V51[8:1],1<4[8:1]/8,2h[8:1]/7,,{16}3h[8:1],A2f/B2,A1f/B1,A8f/B8,A7f/B7,5x/6x,4x/5x,3x/4x,
{48}2h[16:1]/5,6,7,{16}8,{48}5h[16:1]/4,3,2,{16}1-5[16:1],3x,8-4[16:1],6x,1-6[16:1],7x,8-3[16:1],2x,1,7x,8,6x,5,{48}4/7h[16:1],3,2,{16}1,{48}4h[16:1]/5,6,7,{16}8-4[16:1],6x,1-5[16:1],3x,8-3[16:1],2x,1,7x,8,2x,2/6,3/7,{32}6x,5x,{16}7<4[16:1],8,1,2-4[16:1],7x,2-6[16:1],5x,2-8b[16:1],7x,2,5x,2,7,6,4/5,3h[8:1]/5,,2,1>7[8:3]/4h[8:1],8,,5/7,1b,,{4},Chf[8:1],
{48}2/8h[16:1],3,4,{16}5,{48}2h[16:1]/1,8,7,{16}6,{32}3v6[16:1]/4,,,8,7v2b[16:1],,{16}1/5,{8}3bx,7bx,4h[8:1],{64}3x,2x,1x,8x,7x,6x,5x,4x,{8}3x-7[16:1]/1b,2h[8:1]/8,{32}3<6[16:1],,,1,{16}1,2/8,{48}3/7h[8:1],,,,,8x,1xs5b[16:1],2x,3x,4x,5x,6x,7x,8x,1x,2x,3x,4x,{8}5b/1b,
2-6-8[8:1]*-6-4[8:1]/6,4-2b[16:1]/8-2b[16:1],,,{16}3hbx[32:1]/7hbx[32:1],2hbx[32:1]/6hbx[32:1],1hbx[32:1]/5hbx[32:1],4hbx[32:1]/8hbx[32:1],{64}E3,E2,E1,E8,E7,E6,E5,E4,2,1,8,7,6,5,4,3,{8}2hb[16:7]/6p4b[8:1],8x,6,{16},3h[32:13],7hb[32:11],,,,,,{64}8/4b,1/5b,2<5-3-8-5[32:39]/6b>8-4[32:39],,{16},
{1}2b/6b,{2},{16},E2,E6,E3,E7,E4,E8,,{1}1<5p3[1:1]/5>1p7[1:1],{4},,2h[4:1],4h[4:1],Ch[4:1],,{8},C,
