&title=Little Star
&artist=REDALiCE Feat. Ayumi Nomiya
&first=-1.299
&des=PiraTom
&des_5=PiraTom
&lv_5=13
&inote_5=(183){1},{8},1/2,,8/7,{16}6,5,{8}6,5/4,6/3,
7x<4[8:1],7,8,1,2>5[8:1],2,8,{16}8,7,
{4}6>3[4:1],3>8[4:1],8<5[4:1],5,
{16}3h[16:3],,,4,{8}3,4/3,{4}5h[8:1]/4h[8:1],{8}6/5,7/4,
{16}2,1,,1,{8}2,3/7,{4}8h[8:1]/1h[8:1],{32}8,7,6,5,1,2,3,4,
{4}8b,{8}5/3,2,6/3,1,7/3,{16}1,2,
{4}3x<6[4:1],6<1[4:1],1>4[4:1],4,
{8}6x,6,3,3,7,7,2,2,
{16}8b/1b,,,3b/4b,,,{8}5b/6b,{2}Cf,
{8}7xpp6[4:3],,,5,,,{4}4,
{2}3pp2[4:3],{8}8,8,7,7,
6>5-1[2:1],,,2,,,{4}2,
{8}1b/2b,2b/1b,{4}2b/1b,{16}1,8,7,6,1,2,3,4,
{8}8V64v7[4:3],,,1,,,{4}2,
{2}2-5V38[4:3],{8}7,7,6,6,
5q4[2:1],,,4x,{16},,,,,,,,3b/4b,
,,4b/5b,,,{8}6b/5b,{4}Cf,{32}1,2,3,4,8,7,6,5,
{4}2pp8[8:3],{8}6,6h[4:1],,,7pp4[2:1],3,
{4}7,{8}3,3h[4:1],,,4,5/2,
{4}6/3pp1[8:3],{8}7,7h[4:1],,,{4}8,
7b/6b,{8}8b/1b,4b/3b,{16},,6,5,7,5,{8}6,
3pp1[2:1],7,3,8,7-3[8:1],6,{4}7,
{8}4,2,5,3,{16}5,6,7,8,1/2,3,4,5,
7bxh[8:1],,,6h[8:1]/5h[8:1],,,{8}5b/6b,{16}3x,4x,2x,4x,{4}3x,
{16}1bh[8:1]/2bh[8:1],,,2bxh[8:1]/3bxh[8:1],,,{8}3b/4b,{16}6x,5,7x,5,{4}6x,
{16}8bh[8:1]/7bh[8:1],,,7bh[8:1]/6bh[8:1],,,{8}6b/5b,{16}2,1,3,1,{4}2x,
{32}7b/8xh[4:1],6,5,4,{8}3,{32},,,,2b/1xh[4:1],3,4,5,{4}6,{8}8b/4b,6bpp5[8:5]/2bpp1[8:5],
,,,,,,,,,,{4}E7,
C,E3,
{8}4/7x-4[8:1],3,7,3,2-5[8:1],6,2,7,
6-2V85[16:7],3-5[8:1],6,3x,,4,{4}4,
2-6>3[4:1],{8}1,1<6[16:3],,1,2,3,
{16}5x,6,7,8,1,2,3,4,8,7,6,5,4,3,2,1,
{8}6-1[8:1],2,6,2x,3-8[8:1],7,3,7,
6-3[8:1],3<6[8:1],6,2x-5-8[4:1]*-7[8:1],,,,,{4}1b/C/B7/B6,
{8}8/2b,3b/7-3b[8:1],,7b/8-4b[8:1],,8b/1-5b[8:1],
,1b/2-6b[8:1],,2b,,Ch[8:3],,,,,7x-3[8:1],
2,7,1,2-6[8:1],8,
2,7,8<5[8:1],5-2[8:1]*-1[8:1],,,,,{4}3-6V82[4:1],
{8}1,1x<5-8[4:1],,3,{4}3,
{16}1,2,3,4,5,6,7,8,4x,3,2,1,8,7,6,5,
{8}2b,2b,{16},,7/5,6,{4}7x/5x,{8}1b/7b,1b/7b,
{16},,3,4x/2x,{4}3,{16}8,7,6,5,{8}4,1h[8:7],
{4}3,3,3,3<6[4:1],
6<1[4:1],1>4[4:1],4<7[4:1],7pp4[4:3],
{1}Cfh[1:1],
B7/B6/B2/B3/A3/A2/A6/A7,
{4},,,,,,,,,,,,6h[1:1],
,,5,
{2}4h[2:1],3h[2:1],
{8}1h[1:1],{4},,,{32}8,7,6,5,
{8}4b,1b,,8b/3b,{4}1b/6b,{32}2,3,4,5,6,7,8,1,
{4}2q4[2:1],6,6,6,
6q8[2:1],3,3,{8}3,2,
{2}8b/1b,{8}3,,,5,
{4}5b/6b,7b/8b,1b/2b,{8}4b/3b,{16}3,4,
{8}2b,2,2/8,2,2/6,2,2/5,{16}5,4,
{8}7b,7,7/1,7,7/3,7,7/5,{16}4,5,
{8}2b,2,2,{16}8,1,{8}7b,7,7,{16}4,5,
{8}3b,3,6b/4,6,{32}2,3,4,5,6,7,8,1,2,3,4,5,6,7,8qq1[16:7],1,
{4}2pp1[8:3],,,C,
{8}4/7xp3[8:1],3,7,4,2-5[8:1],6,2,7,
6-2V85b[16:7],3V52[16:3],6,3x,,1x,{4}1x,
2-6>3[4:1],{8}1,1<6[16:3],,1,2,3,
{16}5x,6,7,8,1,2,3,4,8,7,6,5,4,3,2,1,
{8}6q4[16:3],2,6,2x,3-8[8:1],7,3,7,
6-3[8:1],3<6[8:1],6,2x-5-8b[4:1]*-7[8:1],,,,,{4}1b,
{8}8/2b,3b/7-3b[8:1],,7b/8-4b[8:1],,8b/1-5b[8:1],
,1b/2-6b[8:1],,2b,,Ch[8:3],{32},,,,,,,,7bxw3[8:1],
8bx,1bx,2bx,,,,,,,,,,,,,{8}1xq5[8:1],7,1,8,
7-4[8:1],2V41b[4:1],7,2,,8,{4}8,
6-3V17[4:1],{8}8,8x>4-1[4:1],,6,{4}6,
{16}8,7,6,5,4,3,2,1,5x,6,7,8,1,2,3,4,
{8}7b,7b,{16},,2/4,3,{4}2x/4x,{8}8b/2b,8b/2b,
{16},,6,5x/7x,{4}6,{16}1,2,3,4,{8}5,8h[8:7],
{4}6,6,6,6>3[4:1],
3>8[4:1],8<5[4:1],5>2[4:1],2qq5[4:3],
{1}Cfh[1:1],
{16},,,,,,7x,1x,7x,,,4x/2x,,,{8}4x/5x,
{16}6,5,{8}6,7/4,4/7,2h[8:1],8,{4}3b/7b,
{16}6bx/5bx,,,3bx/4bx,,,{8}1,{4}2bx/6bx,{8}5,3,
{16}6,5,6,5,{8}6,3/7,{4}8h[8:1]/2h[8:1],{32}8,7,6,5,1,2,3,4,
{4}8b,{8}5/3,2,6/3,1,7/3,{16}1,2,
{4}3x<6[4:1],6<1[4:1],1>4[4:1],4,
{8}6x,6,3,3,7,7,2,2,
{16}8b/1b,,,3b/4b,,,{8}5b/6b,{2}Cf/B8/A8/B6/A6/B2/A2/B4/A4,
E
