&title=PHYSALIS
&artist=TAG
&first=-0
&lv_5=14
&des=Yoki
&des_5=Yoki
&inote_5=
(200){4},,,,{1}4/3h[2:7],
{2}5,6,
{1}5<8[2:1],
1p4[2:1],
5/6h[2:7],
4,
3q1[2:1],
{2}2-6[2:1],C,
{4}8/7h[4:1],1-5[8:1],{2}1/3h[4:1],
{4}2/4h[4:1],3-8[8:1]*-7[8:1],{2}3,
{4}1/2h[4:1],8-4[8:1],{2}8/1h[4:1],
{4}1/8h[4:1],2-6[8:1],{2}6/2,
{8}5,5,4,4,6,6,3,3,
7/1,7,7,7,2/8,2,2,2,
{16}8,1,8,1,7,2,7,2,6,3,6,3,5,4,5,4,
{4}5s1[8:3]*z1[8:3],,,3b/7b,
{8}4/6,4/6,3/6,3/6,,3/6,3,2,
2/6,,,2/6,2,1/6,1,6,
7/2,7/2,7/3,7/3,,3/7,3,4,
4/7,,,3/7,3,2/7,2,7,
5/3,5/3,6/3,6/3,,6/3,6,7,
7/3,,,7/3,7,8/3,8,3,
2/7,2/7,2/6,2/6,,6/2,6,5,
5/2,,,6/2,6b,7/2,{4}7b,
{8}2-5[8:1],7-3[8:1],2,7,,2/4,1-5[8:1]*-4[8:1],8,
1,,,6,7-4[8:1]/3v8[8:1],8,{4}7/3,
{8}5/1-5[8:1],2/6-1[8:1],1,6,,8/3,7-3[8:1]*-4[8:1],6,
7,,,1,2-5[8:1]/6-2[8:1],3,{4}6/2,
{8}1/3,3/1,8/2,8/2,,1/7-4[8:1],6/8-4[8:1],7,
8,,,1-6[8:1],2-5[8:1],1,{4}2,
{8}4/6,4/6,5/7,5/7,4,4/8-5[8:1],4,8/4,
3,3/8-4[8:1],3,8/3,2,6/2,{4}6b/2b,
{1}1v4V28[8:13]/5v8V64[8:13],
,5/1h[1:3],
{2}6,7,
{1}8h[1:1],
,1/5h[1:3],
{2}2,3,
{1}4h[2:3],
{2},5b,
{4}E6,{8}B7,E8/E2,,B2,B3,B4/E4,
,B6/E6,{4}B2/E2,{16}E8,,,B7,,,{8}B6,
{4}E6/E4,{8}B3,B2/E2,,B5,B4,C,
,B8,{4}B1,E1,{8}E7,E3,
{16}E8/E2,,,,,B6,B5,B4,B3/E3,,,B1,,,{8}B8,
B7/E7,,,E1/B1,{16}B5/E5,,,,,B3,B4,B5,
{8}E7/B6,,,B8/E1,{2}B4/E5,
{4},,C,{8}E8/E4,E6/E2,
5,5,5,5,1,1,1,1,
6,6,6,6,2,2,2,2,
{16}7,3,7,3,7,3,8,4,8,4,8,4,,,{8}8b/4b,
,6b/B5f/E5f/B4f/A5f/A4f/D5f,{4}2b/B8f/E1f/A8f/D1f/A1f/B1f,{8}3/4,5/6,7/8,2/1,
{4}8/3<6[8:1],{8}3/6,7-3[8:1],,7/2-4[8:1],1,2/5-1[8:1],
,5/7-5[8:1],,7/4-8[8:1],,4/2,,,{4}7/1h[8:11],
{8}6,{32}5x,4x,{16}3>5[4:3],,,,,,,,,,,,,,,,,{8}4/2,
5/3,6/4,7/5,
{4}6/8,{16}1,7,1,7,{8}1,4/3,8,5/6,
{4}4h[4:1]/7-5[8:1],{8}7,3-1[8:1]*-7[8:1],,3,,8/6h[4:3],
,,2,4,,3,,7h[16:3]/4h[16:3],
,2h[16:3]/1h[16:3],,5h[16:3]/3h[16:3],,6/8,7,3b/1b,
{4}2h[2:1],{8}3,1-3[8:1],,1/4-8[8:1],5,4/6h[4:1],
,1,{4}7/2,{16}6h[8:1]/4h[8:1],,,5h[8:1]/3h[8:1],,,{8}6b/8b,
{4}7h[2:1],{8}6,8-6[8:1],,8/5-1[8:1],4,5/3h[4:1],
,8,{4}2/7,{16}3h[8:1]/5h[8:1],,,4h[8:1]/6h[8:1],,,{8}5b/7b,
{16}6,5,{8}6,{16}6,5,{8}6,{16}6,4,{8}6,{16}6,4,{8}6,
{16}3,4,{8}3,{16}3,4,{8}3,{16}3,5,{8}3,{16}3,5,{8}3,
{16}6,5,7,4,8,3,1,2,4,3,5,2,6,1,7,8,
{4}B8/C/B4,6/2,{16}5h[8:1]/3h[8:1],,,7h[8:1]/1h[8:1],,,{8}8/2,
7/3,7,7/2,7,{16}8,1,7,2,8-4[8:1],1,7,2,
{8}8,,,6/1,{4}7z3[8:1]/8s4[8:1],{16}8b/7b,C,,,7/8h[4:1],
6,5,4,{8}3,{16}8/1h[4:1],7,6,5,{8}4,{16}1/2h[4:1],8,7,6,
{8}5,{16}2/3h[4:1],1,8,7,{8}6,{16}2,3,4,5,8,7,6,5,
2/1h[4:1],3,4,5,{8}6,{16}1/8h[4:1],2,3,4,{8}5,{16}8/7h[4:1],1,2,3,
{8}4,{16}7/6h[4:1],8,1,2,{8}3,{16}7,6,5,4,3,2,1,8,
3,4,5,6,{8}8x/7x,{16}1,2,3,4,{8}5/6x,{16}7,8,1,2,
{8}3/4x,{16}5,6,7,8,{8}1x/2x,{16}6,5,4,3,1,2,3,4,
7,6,5,4,{8}2x/3x,{16}1,8,7,6,{8}5/4x,{16}3,2,1,8,
{8}7/6x,{16}5,4,3,2,{8}1x/8x,{16}3,4,5,6,7,8,1,2,
7,6,5x/4x,3,{8}2,{16}7,6,5x/4x,3,{8}2,{16}8,7,6x/5x,4,
{8}3,{16}8,7,6x/5x,4,{8}3,{16}1,2,3,4,7,6,5,4,
2,3,4x/5x,6,{8}7,{16}2,3,4x/5x,6,{8}7,{16}1,2,3x/4x,5,
{8}6,{16}1,2,3x/4x,5,{8}6,{16}2,3,4,5,6,7,8,1,
7,6,5,4,{8}3x/1x,{16}2,3,4,5,{8}6x/8x,{16}8,7,6,5,
{8}4/2x,{16}1,2,3,4,{8}5x/7x,{16}8,7,6,5,4,3,2,1,
{8}4h[16:1]/8h[16:1],B8/C/B4,,2h[16:1]/6h[16:1],{4}C/B6/B2,{8}3h[16:1]/7h[16:1],C/B7/B3,
,1h[16:1]/5h[16:1],{4}C/B1/B5,{32}1,2,3,4,5,6,7,8,{4}1w5[8:1],
{8}B1/C/B4/B6/B5,,,,,,,8V64[8:1]*-4[8:1],
{16},,8x,B7/B6/B5,,,{8}1-5[8:1]*V35[8:1],{16},,1x,B2/B3/B4,,,,,{4}7/1h[8:11],
{8}6,{32}5x,4x,{16}3-1-7-5[16:11],,,,,,,,,,,,,,,,,{8}5/7,
4/6,3/5,2/4,
{4}3/1,{16}8,2,7,1,{8}8,6/4,1,5/3,
{4}6h[4:1]/2v5[8:1],{8}2,6-2[8:1]*v1[8:1],,6,,8/3h[4:3],
,,7,5,,6,,2h[16:3]/5h[16:3],
,7h[16:3]/8h[16:3],,4h[16:3]/6h[16:3],,3/1,2,6b/8b,
{4}7h[2:1],{8}6,8v6[8:1],,8/5V31[16:3],4,5/3h[4:1],
,8,{4}4/7,{16}2h[8:1]/5h[8:1],,,4h[8:1]/7h[8:1],,,{8}1b/3b,
{4}2h[2:1],{8}3,1v3[8:1],,1/4V68[16:3],5,4/6h[4:1],
,1,{4}5/2,{16}7h[8:1]/4h[8:1],,,5h[8:1]/2h[8:1],,,{8}6b/8b,
{16}7,1,{8}5,{16}2,8,{8}4,{16}7,1,{8}5,{16}2,8,{8}4,
{16}6,5,{8}7,{16}3,4,{8}2,{16}6,5,{8}7,{16}3,4,{8}2,
{48}7bx,E7,B6,B5,,,2bx,E3,B3,B4,,,{16}5bx,4bx,6bx,3bx,{48}8bx,E8,B7,B6,,,1bx,E2,B2,B3,,,{16}6bx,3bx,7bx,2bx,
{2}C/B3/B2/B6/B7,{16}3h[8:1]/4h[8:1],,,2h[8:1]/5h[8:1],,,{8}1/6,
2/8,{16}2,7,2,6,2,5,2,4,2,3,2,8,{8}2,
7/1,{16}7,2,7,3,7,4,7,5,7,6,7,1,{8}7,
{16}3,4,2,5,1,6,8,7,5,6,4,7,3,8,2,1,
2h[8:1]/8h[8:1],,,3h[8:1]/4h[8:1],,,{8}7bx/1bx,{16}6h[8:1]/4h[8:1],,,7h[8:1]/8h[8:1],,,{8}3bx/5bxw1[1.047##0.15],
,,,,,,{4}B5/C/B8/B2/B1,
{16}3,6,3,6,4,5,4,5,2,3,4,5,7,6,5,4,
2,7,2,7,1,8,1,8,3,2,1,8,6,7,8,1,
3,7,3,7,2,8,2,8,1,8,7,6,5,4,3,2,
6,2,6,2,7,1,7,1,8,1,2,3,4,5,6,7,
2,6,2,6,3,5,3,5,4,5,6,7,8,1,2,3,
7,3,7,3,6,4,6,4,5,4,3,2,1,8,7,6,
3,7,3,7,2,6,2,6,1,8,7,6,5,4,{8}7/3-7[8:1],
,3/6-2[8:1],,6/1-5[8:1],,5/1,{16}6,4,7,3,
8,2,{8}8,{16}4,6,{8}4,{16}8,7,6,5,4,3,2,1,
3,5,{8}3,{16}7,1,{8}7,{16}3h[8:1]/B7/E7/B6,,,6h[8:1]/B2/E2/B1,,,{8}1b/B6/E6/B5,
{16}2,1,{8}2,{16}6,5,{8}6,{16}2,3,4,5,6,7,8,1,
3,4,{8}3,{16}7,8,{8}7,{16}6h[8:1]/B2/E3/B3,,,3h[8:1]/B7/E8/B8,,,{8}8b/B3/E4/B4,
{16}7,5,6,3,5,4,,,6,7,8,1,4,3,2,1,
7,1,{8}8,{16}3,1,{8}2,{16}7,6,5,4,1,2,3,4,
7,3,7,3,8,2,8,2,1,8,7,6,5,4,3,2,
1,1x,1,1x,1,1x,1,1x,1-5[8:1],1x,1x,1x,,,,,6-8[8:1],
5,6,5,{8}6,{16}2-4[8:1],1,2,1,{8}2,{16}6,5,7,5,
{8}6,{16}2,1,3,1,{8}2,2/6,4/8-5[8:1],{16}7,3,{8}8,
{16}3-1[8:1],4,3,4,{8}3,{16}7-5[8:1],8,7,8,{8}7,{16}3,4,2,4,
{8}3,{16}7,8,6,8,{8}7,7/3,5/1-4[8:1],{16}2,6,{8}1,
{16}6-8[8:1],5,7,5,{8}6,{16}2-4[8:1],1,3,1,{8}2,{16}6,5,7,4,
{8}8,{16}2,1,3,8,{8}4,2/6,4/8-4[8:1],{16}7,3,{8}8,
{16}6,5,6,5,6,3,4,3,4,3,5,4,5,4,5,3/6,
{8}7/2,{24},,,,,,8b,7,6,1b,2,3,7b,6,5,2b,3,4,5,6,7,
{4}8-4b[8:1],{16}8bw4[2:3],Cf,
E
