&title=Cat Paradise
&artist=Laur
&first=0.02
&des=Dstar
&lv_5=14
&des_5=Dstar
&inote_5=
(220){4},,,,{2}2,
2,
{4}2,2,2-5[8:1],2h[4:1],
6xh[4:1],5,{2}4h[4:1],
{4}3h[4:1],7,6/4,5/3,
3h[4:1],4,{2}5h[4:1],
{4}6h[4:1],2,3/5,4/6,
6h[4:1],5,{2}7h[4:1],
{16}4,,,4,{4}7,6/4,5/3,
3h[4:1],4,{2}2h[4:1],
{16}5,,,5,{4}2,3/5,4/6,
7>2[4:1],3,4,5,
6/7>2[4:1],3,4,5,
6>3[4:1],2,1,8,
7/6>3[4:1],8,1,2,
2/3<6[4:1],1,8,7,
3q7[4:1],2,1,8,
3xv8[4:1],{16}4x,,,5x,,,,6x,,,,3xq1[4:1],
,,,4x,,,{8}5x,,6x,,,{2}6x/5x,
6,
6/7,{4}6,5,
{2}3/4,3,
3/2,{16}2,,,1,2,,,8,
{2}2,7,
7/8,{4}8,1,
2/5,3/6,4/7,5/8,
{1}1x/6xqq1[2:1],
{4}2/3,2/4,2/5,2/6,
8/7,8/6,8/5,{8}8/4,1,
{4}2/3,4/5,6/7,8/1,
2/3,7/6,3/4,{8}8/7,1,
{24}6/2,3,4,5,6,7,8,1,2,3,4,5,6,7,8,1,2,3,{4}4bx,
{24}7/3,6,5,4,3,2,1,8,7,6,5,4,3,2,1,8,7,6,{4}5bxw1b[4:9],
{1}5b,
{8},,,,,,,,,,,,,,,3x/4x,
3/4,3,3/5,3,6/3>8[8:1],3,{4}3/7,
5h[16:1]/6h[16:1],5h[16:1]/6h[16:1],8h[16:1]/7h[16:1],8h[16:1]/7h[16:1],
1h[16:1]/2h[16:1],1h[16:1]/2h[16:1],3h[16:1]/4h[16:1],{8}3x/4x,4x/5x,
{4}5xh[16:1]/6xh[16:1],7h[16:1]/8h[16:1],1h[16:1]/2h[16:1],3h[16:1]/4h[16:1],
4h[16:1]/5h[16:1],{8}3/6,2/7,{4}8/1pp3[4:1],8<5[8:1],
{2}8b,{32}1,2,{16}3,{32},,,,8,7,{16}6,{32},,,,2,
3,{16}4,{32},,,,7,6,{16}5,{32},,,,1,2,{16}3,{32},,,,7,6,{16}5,{32},,,,2,
3,{16}4,{32},,,,8,7,{16}6,,,3,4,{8}3,7qq5[8:1],8,
{4}7b,{16}B1,B2,B3,B4,{4}6/B5,3x/Cf,
1h[16:1]/8-6[8:1],1h[16:1]/8-4[8:1],1h[16:1]/8-6[8:1],1h[16:1]/8-4[8:1],
8/1-3[8:1],1pp3[4:1]/8qq6[4:1],{8},,,,7x/8x-2[8:1],
7x,{4}7/8x-4[8:1],7/8-2[8:1],7/8-4[8:1],
8/7-5[8:1],7qq5[4:1]/8pp2[4:1],{8},,,,1/7-5[8:1],
1,1/7,1,1/4-6[8:1],1,4/1,1,
7/2>4[8:1],7,2/7,7,7/5>3[8:1],7,7/5,7,
7/2,7,7/1,7/8,{16}7x,6x,7x,5x,7x,4x,7x,3x,
{1}7b<5[1:1],
{16}1b,2b,{8}3bh[8:3],,,4,5h[8:1],{4}Cf,
1pp3[8:1],1/7,{8}8,3<5[8:1],2,3,
6,7,8,1,{2}2-7[8:1]/6-3[8:1],
{4}1pp3[8:1],1/7,{8}8,3<5[8:1],2/6,3,
6,7,8,5/1,{4}2-7[8:1]/6-3[8:1],2V46[4:1]/6V82[4:1],
{16},,,,,,,,3b,7b,3b,7b,{8}3h[8:1],Cf,
7x,6,5,4,{2}7-2[8:1]/3-6[8:1],
{4}8qq6[8:1],8/2,{8}2,6>4[8:1],1pp3[2:1],6,
{2}1,{16}7x,6,5,4,8x,7,6,5,
{8}4/7-2[8:1],7,3h[16:1],3h[16:1],3b/7<5[12:1],2,1/7,8,
7,6,5,4,{4}3-8[8:1]/7-4[8:1],7/3,
1pp3[16:3],{8}1/6,7,8qq6[16:3],1,2/8,3,
4bx,5bx/7bx,4bx/8bx,7bx/3bx,{4}2bx-5[8:1]/6bx-1[8:1],2/6,
{8}8h,8h,{16}2h,1h,2h,1h,{8}3h,3h,{16}6h,5h,6h,5h,
{8}7h,7h,{16}3h,4h,3h,4h,{8}2h,2h,{16}6h,5h,6h,5h,
7h,4,,8h,{8}3,B7/B3/E4/B4/E7/B6,{16}2h,5,,1h,{8}6,B2/B6/E6/B5/E3/B3,
4/7,4/7,2/5,2/5,{16}7b,6b,{8}5bh[4:1]/4x>1[8:1],4w8b[1:1],4,
{1}Cf,
{16},,,,,,,,4,5,6,7,4,3,2,1,
{8}8x,{16}6x,5x,,,{8}7x,8x,{16}6x,5x,,,{8}7x,
1x,{16}7x,6x,,,{8}8x,1x,{16}7x,6x,,,{8}8x,
1x,{16}3x,4x,,,{8}2x,1x,{16}3x,4x,,,,,{8}6xh[8:3]/5xh[2:1],
,,,,7x,,5x,
{4}8x/7x,6x/1x,2x/5x,{8}4x/3x,2x/1x,
,8x/3x,{4}3x/8x,4x/7x,5x/6x,
{8}1x,{16}3x,4x,,,{8}2x/5x,{4}1x/6x,8x/2x,
{8}4xh[2:1]/6xh[2:1],,,,,2xh[4:1],,4x,
{4}5x/2x,3x/4x,{2}2x>5[16:3],
{8}8x,{16}6x,5x,,,{8}7x,{2}8x<5[16:3],
{8}1x,{16}3x,4x,,,{8}2x/5x,{4}1x/6x,2x/7x,
{8}8x/3x<6[16:3],,,,,7xh[4:1],,6x,
{4}5x/7x,6x,4x/2x,{8}3x,2x/8x,
,2x,{4}7x/1x,8x,5x/7x<3[4:3],
8x,{8}1x,1x,,2x,{4}2x>6[4:3],
1x,8x,{2}7xh[4:1],
7/4,5/6,
2/5,{4}4/3,4/2,
{2}3/8,1/2,
6/1,{16}8/7,,,8,1,,,1,
{2}2,3/4,
7,{4}6/5,4/7,
3/8,1/6,3/8,1/6,
{1}3bq6[2:1]/8bp5[2:1],
{8}7/B1,7,7/B2,7,7/B3,7,7/B4,7,
7/B1,7,B2/7-5[8:1],7,{2}7bx/Cf,
{8}2/B8,2,2/B7,2,2/B6,2,2/B5,2,
2/B8,2,B7/2-4[8:1],2,{2}2bx/Cf,
{16}6,5,6,5,6,5,6,5,6,5,6,5,{4}6b,
{16}3,4,3,4,3,4,3,4,3,4,3,4,{4}3bw7b[8:1],
{1}3b/Cf,
,,{4},,{8}7,
{16}4,5,,,{8}7/4,
{2}5h[4:1]/6b<1[4:1],{8}2,{16}2,3,{8}4,7,
{4}6/5>2[4:1],5/7>2[4:1],7,3h[4:1],
{2}4<7[4:1],{8}4,{16}4,3,{4}2/8V61[4:1],
{2}1-4-2[4:1]*-5[8:1],{4}6,{16}8s4[4:1],,,1,
{2}8,{16}2s6[4:1],,,3,{4}2,
{16}1,8,{8}7,{4}6x>1[4:1],{16}1,8,7,6,5,4,3,2,
{2}1w5[8:1],{16}3x,7x,3x,7x,{8}2x-5[16:3],6x,
{4}2x-7[16:3],2x-6[16:3],2xV84[2:1],2x,
{2}1bxpp3[4:1],{8}8,{16}8,7,{8}6,5/3,
{4}4<7[4:1],4/2<7[4:1],2,6h[4:1],
{2}5z1[4:1],{8}8,{16}8,7,{8}6<2[4:1],2,
{24},,,,,,{12}3,4,5,{4}6/2>5[8:1],2,
1>5[8:1],1b/6,{12}7,7,7,5,5,5,
{4}3q7[8:1],3/2pp5[8:3],{2}2/8h[2:1],
{1}B7/B3/Cf/E7/E3,
{4},,,8<5[8:1]*pp3[4:3],
{2}8b,7<4[8:1],
{4}3>8[4:1],8>3[4:1],{2}6<8[8:1],
{4}2<7[4:1],7>2[4:1],{2}5<7[8:1],
{4}4>8[4:1],8p4[4:1],{2}4<6[8:1]*>8[8:3],
7<5[8:1],{16}2>5[8:1],,,5,{4}2<7[4:1],
2/7q3[4:1],4<6[8:1]*>1[4:1],4b,7,
7/2p6[4:1],5>3[8:1]*<8[4:1],5,2<7[4:1],
2/7q3[4:1],6>4[8:1],{16}6b,,,3b,{8}3b,5b,
{32}4bx/6xh[1:1],5x,,7x,8x,1x,2x,3x,{24}4x,5x,,7x,8x,1x,2x,3x,4x,5x,,7x,{16}8x,1x,2x,3x,
{8}4,5,{4}6,{16}7x<4[8:1],,,3x,{4}7q3[4:1],
7/3>8[4:1],4,{8}4>1[4:1],4,{4}7>3[4:1],
7,{12}7,8,1,{4}2/6<1[8:1],3,
5V31[8:1],5b/8,{12}7,7,7,1,1,1,
{4}3<6[4:1],6>3[16:3]*<2[8:3],,,{1}Cf/B3/A3/E3/D3/B2/A2,
{2},8x-4[8:1],
{8}2,2,2/3,2,2/4,2,2/5,2,
2/6,2,7/2-6[8:1],2,{2}2b/8,
{8}7,7,7/6,7,7/5,7,7/4,7,
7/3,7,2/7-3[8:1],7,{2}7b/1,
{24}3x,4x,3x,4x,3x,4x,3x,4x,3x,4x,3x,4x,3x,4x,3x,4x,3x,4x,{4}3bx,
{24}6x,5x,6x,5x,6x,5x,6x,5x,6x,5x,6x,5x,6x,5x,6x,5x,6x,5x,{4}6bx,
{24}1x,8x,1x,8x,1x,8x,1x,8x,1x,8x,1x,8x,1x,8x,1x,8x,1x,8x,{4}1bxw5b[16:35],
{1}1b,
,,{4},,,{8},7x/8x,
7/8,7,7/1,7,2/7-5b[8:1],7,{4}7/3,
3bx/4bx,{8}2bx/5bx,5bx/2bx,5bx/2bx,5bx/2bx,5bx/2bx,{16}3bx,4bx,
{8}5bx/7bx,7bx/5bx,7bx/5bx,7bx/5bx,{16}8bx,7bx,6bx,5bx,{8}4bx,1bx,
,,{4}3b/2b,{8}8b/3b,3b/8b,8b/3b,{16}4bx,5bx,
{4}8bx/6bx,{16}7bx,6bx,{8}5bx/1bx,{2}2bxpp4b[8:1],
{4}3b/6b,{8}2b/7b,7b/2b,7b/2b,7b/2b,7b/2b,{16}1bx,2bx,
{8}3bx,7b,{16}8bx,7bx,{8}6bx,{16}2bx,3bx,{8}4bx,,6b/5b,
,,{4}1b/8b,{8}2b/7b,2b/7b,7b/2b,{16}7bx/2bx,6bx/3bx,
{4}4bx/5bx,{16}2x,4x,2x,4x,{4}1x-5[8:1]*-6[8:1],1x,
{8}2pp4[8:1],2,8qq6[8:1],8,1pp3[8:1],1,7qq5[8:1],7,
2pp4[8:1],2,8qq6[4:1]*pp2[4:1],8,{2}8bx,
{8}3qq1[8:1],3,5pp7[8:1],5,4qq2[8:1],4,6pp8[8:1],6,
3,3,5,5,1,1,{4}6b/2b,
1-7[8:1],5h[16:1]/1-3[8:1],5h[16:1]/1-7[8:1],5h[16:1]/1-3[8:1],
6h[16:1]/1<7[8:1],6h[16:1]/1>3[8:1],6h[16:1]/1-7[8:1],1-3[8:1]/5-7[8:1],
1/5,4/8,{8}3/7,2/6,1/5,8/4,
{1}3b/7bqq5[2:1],
Cf/B2/B3/B4/B5/B1/B8/B7/B6,
{4}B4,B6,Ch[4:1],{8}E8,B7,
B2,B3,B6,E6,B3,E4,E6,A5,
E5,C,{4}E1,C,D7/D3,
E
