&title=Bad Apple!!
&artist=上海アリス幻樂団
&first=0.02
&des=CH3COOL
&clock_count=4
&lv_5=12+
&inote_5=(160.73)
{4},,,,,,,,
{4},,,,,,,,
{8}5,,52,,4,,47,,5,,52,,4,,47,,
{8}6,61,,82,,16,,74,
{8},83,,17,,12,,3,
{16}4,,5,,6,,,8,,7,8,,16,,,,
{16}5,,4,,3,,,2,,1,2,,83,,,,
{16}7,,6,,5,,,,2,,3,4,,4h[16:3],,,
{16}7,,,,5h[4:1],,,,1,,,,2,,,,
{16}6,,5,,7,,4,,8,,8,1,,1,8,,
{16}7,,6,,5,,4,,3,,7,8,,4,3,,
{16}6,,5,6,,4,5,,3h[8:1],,1,2,,8,1,,
{16}7,8,7h[4:1],,8,,1,,2,3,4,,8b,,,,
{8}5h[4:1],7,8,1,2,,3,8,
{8}1,,6h[4:1],,8,1,2,3,
{8}4h[4:1],7,8,1,2,,3,4,
{8}3h[8:1],7,5h[8:1],8,3h[8:1],5,6h[8:1],1,
{8}2,3,4,5,6,,7,8,
{8}1-4[8:1],,1-6[8:1],,5-8[8:1],,2,,
{8}3,4,5,6,7,,8,4,
{8}8,,37,,26,,15,,
{8}4h[4:1]/8b,,,,4-7[8:1],3,2,,
{8}7h[8:3]/2b,,,1h[8:3],,,4-8[8:1],,
{8}2b,,3,4h[8:3],,,1h[8:2],,
{8}2b,,7,6h[8:3],,,8,,
{8}1h[8:1]/5h[8:1],,1h[8:1]/5h[8:1],,5,4,3,,
{16}3/7,,4,,5,,6h[16:6],,,,8,,1,,,,
{8}2h[8:4],,,8-4[8:1],8,,1,,
{8}2,3,4,,5,64,37,,
{8}8-4[8:1]/2,,2,,4-7[8:1],3,2,,
{8}2-7[8:1]/7,,2,4<7[8:1],,3,2,,
{8}1/7>2[8:1],,7,5-1[8:1],,,7,,
{8}6-1[8:1],,2,3,,,4,,
{8}2,,4,,4,7,4,8,
{8}6-3[8:1],,,8,,,2,,
{8}4h[8:3],,,6h[8:3],,,8,,
{8}2-6[8:1],,2b/1-5[8:1],,1b/8-4[8:1],,7/8b,,
{8}6,7h[4:1],,8h[4:1],,1,2,3,2,
{8}1h[4:1],,7h[4:1],,5,4,3,
{8}4,5h[4:1],,6h[4:1],,7<4[8:3],8,1,
{8}2h[4:1],,,,1,2,3,4,
{8}5,6h[4:1],,7h[4:1],,6,5,4,
{8}3,4h[4:1],,6h[4:1],,7,8,1,
{8}2,3h[4:1],,2h[4:1],,3,4-8[8:2],1,
{8}2h[4:1],,,,37,,16,,
{8}8b,4-7[8:1],,8,,4,3,2,
{8}1,5-2[8:1],,1,,8,7,6,
{8}5,3-7[8:1],,8,,1<6[8:3],2,3,
{8}4h[4:1],,,,8,1,2,3,
{8}8,4-8[8:1],,1,,5,4,3,
{8}2,6-2[8:1],,8,,3,4,5,
{8}6,2-6[8:1],,8,,5,4-8[4:3],3,
{8}2h[4:3],,,,,,,,
E
