&title=After you ~sync!MIX~(feat.Alyx Trick)
&artist=xaev
&first=0
&des=N0nsense
&lv_5=14
&inote_5=(175)
{32},,,,,,,,,,,,,,,,,,,,,,,,,,,,,,,,,,,Ch[32:29]f,,,,,,,,,,,,,,,,,,,,,,,,,,,,,
{8},,,,,,,,,,,,,,,,
{8}6h[8:4],,,,,,4,,3h[8:4],,,,,,5,,6h[8:4]/1b>4qq4[8:6],,,,,,7,,
{8}/8<5pp5[8:6],,,,,,2,,1>4qq1[8:12]*<6pp1[8:12],,,,,,,,,,,,,,,,
{32}2b/8b,3/7,4/6,,{8},,,
{16}2/5,,3,4,2,,2,,8,1,8,1,8h[8:2],,,,1-5[8:1],,2,,3h[8:1]/1,,,,
{16}7/4,,6,5,7,,7,,1,8,1,8,1h[8:2],,,,8-4[8:1],,7,,6h[8:1]/8,,,,7-3[8:1],,3-7[8:1],,,,,,
{16}1x,,6,5,7,,1x,8,1,8x,1x,,6xh[8:2],,,,
{16}1x,,6,5,7,,1x,8,1,8x,1x,,7xh[8:2],,,,
{16}1x,,6,5,7,,1x,8,1,8x,1x,,8xh[8:2],,,,
{16}2,7,3,6,4,5,3,6,2,7,{32}D1,E1,C,,{8},,
{32}1,2,3h[32:22],,{8},,,5h[8:2],,,,
{32}8,7,6h[32:22],,{8},,,4h[8:2],,,,
{32}8,1,2h[32:22],,{8},,,4h[8:2],,,,
{32}1,8,7h[32:22],,{8},,,5h[8:2],,,,
{8}2h[8:2]/6h[8:2],,,,{16}3,4,1<2[8:4],,,,1,,,,2<3[8:4],,,,6,,,,3>4[8:3],,,,7h[8:3],,,,,,{32}3,2,1,8,7,6>3p6[8:9]*<1q6[8:9],,,,,,,,,,,,,,,,,,,,,,,,,,,,,,,,,,,,,,,,,,,,,,,,,,,
{8}1h[8:2],,6,7-4[8:1],,7,2h[8:2],,6,7,1/8h[8:2],2,3-6[8:1],,3,,
{8}8h[8:2],,3,2-5[8:1],,2,7h[8:2],,3,2,8/1h[8:2],7,6-3[8:1],,6,,
{8}2h[8:2],,8q4[8:1],7,6h[8:2]/8,,,,
{8}7h[8:2],8,1h[8:2],8,6h[8:2],8,2h[8:2],8,5pp1>2[8:4],,3h[8:4],,,,,,
{16}2x/5x,,3,4,2,,4x/7x,,6,5,7,,1,8,2,7,
{8}3-7[8:1],,{32}6/3,5,4,,{8},{32}8-4[8:1],1,2,3h[32:5],,,,,{8}8,,
{16}7,8,7,,7,1,7,,7,2,7,,7,3,7,,
{8}6-2[8:1],,{32}3/6,4,5,,{8},{32}1-5[8:1],8,7,6h[32:5],,,,,{8}1,,
{16}2,1,2,,2,8,2,,2,7,2,,2,6,2,,
{8}6h[8:2],,1,2,3h[8:2],{32}8h[64:1],7h[64:1],6h[64:1],5h[64:1],{8},,
{32}6h[8:1]/1h[64:1],2h[64:1],3h[64:1],4h[64:1],{8},{32}8h[64:1]/3h[8:1],7h[64:1],6h[64:1],5h[64:1],{8},6h[8:1]/1,2,{32}8h[64:1],7h[64:1],6h[64:1],,1h[64:1],2h[64:1],3h[64:1],,
{16}7h[8:1],,1,8,2h[8:1],,8,1,6h[8:1],,4,,3h[8:1],,5,,
{8}Ch[8:4]/B2/E3/B3,,,,,,{32}3,4,5,6,7,8,1,2,
{8}3,{4}Ch[8:1],Ch[8:1],Ch[8:1],Ch[8:1],Ch[8:1],Ch[8:1],Ch[8:1],Ch[8:1],Ch[8:1],Ch[8:1],Ch[8:1],Ch[8:1],Ch[8:1],Ch[8:1],{8}Ch[8:1],A2f/E2/B2/E3/D3/D2,{4}Ch[8:1],Ch[8:1],Ch[8:1],Ch[8:1],Ch[8:1],Ch[8:1],Ch[8:1],Ch[8:1],Ch[8:1],Ch[8:1],Ch[8:1],Ch[8:1],{8}Ch[8:1],{4}2h[8:1],7h[8:1],3h[8:1],6h[8:1],
{8}1h[8:1],Ch[8:1],2h[8:1],Ch[8:1],3h[8:1],Ch[8:1],4h[8:1],Ch[8:1],
{8}1h[8:1],Ch[8:1],2h[8:1],Ch[8:1],3h[8:1],Ch[8:1],1h[8:2],,
{8}5h[8:1],Ch[8:1],6h[8:1],Ch[8:1],7h[8:1],Ch[8:1],8h[8:1],Ch[8:1],
{8}5h[8:1],Ch[8:1],6h[8:1],Ch[8:1],7h[8:1],Ch[8:1],5h[8:2],,
{16}1,8,2h[8:1],,7,8,6h[8:1],,2,1,3h[8:1],,6,5,7h[8:1],,3,4,2h[8:1],,5,4,6h[8:1],,2h[8:2],,5,,7h[8:2],,4,,
{32}1h[64:1],2h[64:1],3h[64:1],4h[64:1],{16},,8,,{32}8h[64:1],7h[64:1],6h[64:1],5h[64:1],4h[64:1],3h[64:1],2h[64:1],1h[64:1],8h[64:1],,,,2h[8:1],,,,7h[8:1],,,,2,3,4,5,7,6,5,4,1,2,3,4,8,7,6,5,2h[64:1],3h[64:1],4h[64:1],5h[64:1],6h[64:1],7h[64:1],8h[64:1],1h[64:1],2h[8:2]/Chf[8:2],,,,,,,,
{8},,,,5h[8:2]/4,3,2,1-6[8:1],,7-4[8:1]/1,,3-8[8:1]/7,,1-6[8:1]/3,,4qq1[8:4]/1,
{8},4,5,6,7,8-3[8:1],,2-5[8:1]/8,,6-1[8:1]/2,,8-3[8:1]/6,,5pp8[8:4]/8,,5,4,3,2,,1>3[8:1],7,1-4[8:1],6,1-6[8:1],5,1-7[8:1],4h[8:2],1,,{32}3,2,1,8,7,6,5,4,
{8}3/8>3[8:1],,8/5,6,7>2[8:1],,3/7,4,5h[8:1],,3h[8:1],,7h[8:1],,1h[8:1],,
{8}2,{16}4,3,4,,{8}2-8-6-1[16:5],6,5,4h[8:1],,
{8}7,{16}5,6,5,,{8}7-1-3-8[16:5],3,4,5h[8:1],,
{8}2,3,4-1[8:1],5-8[8:1],4,5,,{32}7,6,5,4,{8}1h[8:1],{32}8,7,6,5,{8}2h[8:1],{32}1,8,7,6,{8}3h[8:1],{32}2,1,8,7,{8}4h[8:1],,1/8,2/7,
{8}6q2[16:3]/3,,6/2<5[8:2],3,4,,1-4[8:1],2,1/7-4[8:1],6,2-5[8:1]/7,3,2/8-5[8:1],,8,C,1/7-4[8:1],,7,C,1/6-3[8:1],,6,C,1/5h[8:2],,{32}1,2,3,4,5,6,7,8,{8}1/Chf[8:2],,
{4}2b>7[4:14],,,,,,,,,,,,,,,,7<2[8:22],,,,,,,,,,,,,Chf[8:4],,,
{16}4x,5,4,5,4x,5,4x,5,4,5,4x,5,4x,5,4,5,3x,6,3x,6,3x,6,3,6,3x,6,3x,6x,3x,6,3x,6,2x,7,2,7,2x,7,2x,7,2,7,2x,7,2x,7,2,7,1x,8,1x,8,1x,8,1,8,1x-5[8:1],,,,1x/6h[8:2],,,,
{8}3h[8:2],,8,7,6h[8:2],{32}1h[64:1],2h[64:1],3h[64:1],4h[64:1],{8},,
{32}3h[8:1]/8h[64:1],7h[64:1],6h[64:1],5h[64:1],{8},{32}1h[64:1]/6h[8:1],2h[64:1],3h[64:1],4h[64:1],{8},3h[8:1]/8,7,{32}1h[64:1],2h[64:1],3h[64:1],,8h[64:1],7h[64:1],6h[64:1],,
{16}2h[8:1],,8,1,7h[8:1],,1,8,3h[8:1],,5,,6h[8:1],,4,,Ch[8:2]/E7/B6/B7,,,,,,,,8w4[8:1],,,,8,,,,
{32}1b/7b,2/6,3/5,,{16},,4,,4/7xh[8:1],,4,,4/1xh[8:1],,4,,4/7xh[8:1],,4,8,4,,4,8,4,,1w5[8:1],,,,1,,,,
{32}8b/2b,7/3,6/4,,{16},,5,,5/2xh[8:1],,5,,5/8xh[8:1],,5,,5/2xh[8:1],,5,1,5,,5,1,5,,6qq4[8:1]/2qq8[8:1],,,,2/6,,,,
{32}1b/5b,2/6,3/7,,{16},,4,,{32}4/7x,6x,{16}5x,4,,{32}4/1x,2x,{16}3x,4,,{32}4/7x,6x,{16}5x,4,8,4,,4,8,4,,2-5[8:1]/6-1[8:1],,,,2/6,,,,
{32}8b/4b,7/3,6/2,,{16},,5,,{32}5/2x,3x,{16}4x,5,,{32}5/8x,7x,{16}6x,5,,{32}5/2x,3x,{16}4x,5,1,5,,5,1,5,,1w5[8:1],,,,1,,,,
{32}2b/8b,3/7,4/6,,,,,,{8}3,2-5<6[16:3],,2,7,8-3<4[16:3],,8,2,1,8w4[8:1],1/7,8,,
{32}7b/1b,6/2,5/3,,,,,,{8}6,7-4>3[16:3],,7,2,1-6>5[16:3],,1,7,8,1-6[8:1]/5-2[8:1],,,,
{32}3b/7b,4/8,1/5,,,,,,{8}3,{16}2-5<6[16:3],1,{8}2,2x,7,{16}8-3<4[16:3],1,{8}8,8x,1,2,3h[8:1],,6h[8:1],,
{8}5h[8:6]/1,1,1,{32}1h[64:1],2h[64:1],3h[64:1],4h[64:1],,,,,1h[64:1],8h[64:1],7h[64:1],6h[64:1],,,,,1h[8:1],,,,
{8}Ch[8:6]f,,,,,,{32}3,4,5,6,7,8,1,2,
{16}3,,6,5,7,,{8}7,7/5-1[8:1],4,7-2[8:1]/5,8,{32}3/7,4,5,6h[32:5],{8},1,8,{32}5/7,4,3,2,1,8,7,6,{8}5-1[8:1],7,
{8}5,,8,7,6-8[8:1]/1,2,3-5[8:1]/6,2,3,{32}8,7,6,,3h[8:1],,,,1,8,7,,4h[8:1],,,,2,1,8,,
{8}5-1[8:1],4/6,
{8}5,,7v4[8:1],4-6-8[16:3],3,2,1>5[8:2],,5v2[8:1],6,7h[8:1],,{16}1,,8,,7v4[8:1],,,,{32}8/7,1,2,3,
{8},{16}2v5[8:1],1,2,1,2,,6,,7v4[8:1],8,7,8,{8}7/1h[8:1],,3h[8:1],,5h[8:1],,7h[8:1],,
{32}2h[64:1]/8h[64:1],7h[64:1]/3h[64:1],4h[64:1]/6h[64:1],,,,,,
{16}3>8[8:1],4,3,4,3,,5-2[8:1],,,,5,,3h[8:1],,{32}1,8,7,6,2h[8:1],,,,8,7,6,5,1h[8:1],,,,7,6,5,4,2,3,4,5,6,7,8,1,
{16}2-5[8:1],,,,2/6h[8:1],,,,7,,8,,{8}1>3[8:1],7,1-4[8:1],6,1-6[8:1],5,1-7[8:1],4,1,6,
{16}6,2,6,3,6,4,6,5,6,8,6,1,6,2,6h[8:1],,{16}3,7,3,6,3,5,3,4,3,1,3,8,3,7,3h[8:1],,8,1,7,2,6,3,5,4,{32}8x,7,6,5,8x,1,2,3,1x,8,7,6,1x,2,3,4,7,6,5,4,3,2,1,8,7,6,5,4,3,2,1,8,(87.5)7-2[16:1]/3-6[16:1],,,,,,,,3b/7b/Cf,
