&title=20,november
&artist=dj nagureo
&first=0.04
&lv_5=12+
&des_5=白-ster
&inote_5=
(130){4},{1},,{4}6,
6,6,
6,6,6,6,
6,6/5,6,6,
{8}6,6,{4}6/4,6,6,
{8}6,6,{4}6/4,6,6,
{8}6,6,{4}6/4,6,6,
{8}6/3b,3b/6,{4}6/5,6/5,{16}5,4,,4,
{8}5,3,6,4,{16}5,3,,4,{8}7,{16}1,8,
{8}2,3,6,4,{16}3,6,,4,{8}7,{16}5,2,
{8}5,3,6,4,{16},3,{8}5,{16}4,6,,5,
2,5,{8},6,5,6,5,6,4,
6,4,6,4,6,4,6,5,
6,6/5,6,4,6,4,6,4,
6,4,6/3,4,6,4,6/3,4,
6,4,6,5,6,5,6,5,
6,4,6,4,6,5,6,5,
6,6/5,6,4,6,4,6,4,
6/3,4,6,4,6/3,4,5,4,
{4},,,{16}3b/5,{8},{16}5,
{8},5,{16},5,{8},5,5,{16}4,{8},{16}4,
{8},4,{16},4,{8},4,4,{16}6,{8},{16}6,
{8},6,{16},6,{8},6,6,{16}3,{8},{16}3,
{8},3,{16},3,{8},3,3,2b/6,3,
5/4,3,5,3,5/4,3,5,3,
5/4,3,5,3,5/4,3,5,3,
5/4,3,5,3,5/4,3,{16}5,4,5,4,
5,4,5,4,5,4,5,4,{8}5,4,4,5,
4,{16}5,3,{8},3,{16}5,2,5,2,,6,{8},3,
{16}6,4,,5,,3,6,3,{8}6,5,4,
5,{16}4,6,{8},6,{16}4,7,4,7,,3,{8},6,
{16}3,5,,4,,6,3,6,{8}3,1,8,
1,{16}8,2,{8},2,{16}8,3,8,3,,7,{8},2,
{16}7,1,,8,,2,7,2,{8}7,8,1,
8,{16}1,7,{8},7,{16}1,6,1,6,,2,{8},7,
{16}2,8,,1,,7,2,7,{8}2,{4}4bw8b[16:15],
E
&lv_6=13.5
&des_6=白-ster
&inote_6=
(130){4},6/4,{8},3/5,{16},,,,,,,{32}6,
3,{4}6,{8}5,4,{4},{8}3,
6,4/5,4,4/5,4,5/3,3,
3/5,{32}5,4,{16}5,{8}3/6,4,3/6,4,3/5,4,
3/6,4,3b/5b,7,4,5,{16}3,4,{8}3,
6,3,5b/4,2,6,3,{16}5,4,{8}5,
7,2,8/1b,2,7,3,{16}6,8,{8}6,
7,2,{4}1-3[8:1],1/8-4[8:1],8/7-5[8:1],
7,6/1,3/8,{16}6h[16:1],5,,3,
{8},4,5/3,4,3/5,{16}6,3,{8}5,{16}3h[8:1],4,
{8},6/4,5,3,{16}4,5,,5,{8}4,{16}3,6,
{8}4,5,4/5-7[8:1],6,4-2[8:1],3,4/5,{16}5,5,
{8}4,5/3,{16}4,7,,3,,2q5[16:5],7,1,{2},{16}6,
1,,2,,7p4[16:5],2,6,{2},{16}5,
2,,7,,3p8[16:5],6,4,{2},{16}6,
1,,7,,1s5[16:5],6,2,{2},{16}5,
4,,6/3,,2s6[16:5],7,1,{2},{16}6,
3,,2/5,,3s7[16:5],7,4,{2},{16}2,
8,,1/6,,7s3[16:5],8,2,{2},{16}5,
3,,4,,6,2,7,{8},{16}1,8,
2,7,3,6,4,5,3,6,2,7,1,8,7/2b,{8},{16}1/8,
{8},2/7,{16},6/3,{8},5/4,7/2,{16}8/4,{8},{16}2/6,
{8},8/4,{16},7/3,{8},5/1,6/2,{16}8/4,{8},{16}7/3,
{8},6/2,{16},5/1,{8},8/4,1/5,{16}7/3,{8},{16}2/6,
{8},7/2,{16},5/4,{8},6/3,8/1,1,6/4,
8,3/5,{16}7,2,{8}7,5/3,8,6/4,1,
5/3,8,7/5,1,2/4,8,6/5,2,
3/4,7,6/5,2,3/4,7,{16}3,6,3,6,
3,7,2,8,1-5b[8:1],8,1,8,{4}1b,6/3,
{8}5,{16}4,6,3,5,{8}4,6/3,6/3,{16}4,5,,6,
{8}3,{16}5,2,,3,{8}7,{16}5,2,{8}6,{4}3/4,
{8}2/5,{16}6,4,,3,{8}5,6/4,3/5,{16}4,6,,3,
{8}5,{16}6,4,{8}6,{16}3,5,,4,{8}6,{4}5/3,
{8}6/4,{16}2,8,,1/6,,7,{8}2,{16}8,3,,8/2,,1,
,3,7,6,,3,{8}5,{16}5,4,{8}5,{4}6/3,
{8}2/7,{16}1,8,,2/7,,6,{8}3,5/4,{4}7/2,
3/6,{16}1,8,,7,2,6,{8}3,{4}6/4,
{8}5,3/7,{4},{8}2/1,8,{4}7/3,
{8}8-4[8:3],2/5,{4}8,,5/3,
{8}4,6/3,{4},{8}7/3,6,2/5,4,
3/7-3[2:1],2,{4}7,
E
