&title=Hammer of Justice
&artist=Toby Fox
&first=0.2
&des=Susie vs Gerson
&des_4=
&des_5=
&des_6=Susie vs. Gerson
&lv_5=14
&inote_4=
&inote_5=(160){4},,,,,1-7<6v4[2:1]/7-1v4[2:1],
,,,8-2>3v5[2:1]/2-8v5[2:1],
,,,1-7<6v4[2:1]/7-1>2v4[2:1],
{16},,,,,,,,,,,,5/3,
,,2/6,,,{8}7/1,{4}8w4[8:1],
8,2>8[2:1],{2}E1,
{4}E5,7<1[2:1],{2}E1,
{4}E5,2-8-6-4[2:1],{2}E5,
{4}E1,{16}7/5,,,6/4,,,{8}5/3,{4}4-8[8:1]/2-5[8:1],
4/2,{8}7,7,4,4,5,{16}2-5[8:1],4,
,4,{8}2,7,7,4,4,5,{16}2>5[8:1],4,
,4,{8}2,7,7,4,4,5,{16}2V46[16:3],4,
,4,{8}2,{16}7,,,8h[16:3],,,{8}1,{16}2h[16:3],,,3,
,,{8}4,2/5,2,6/3,6,4,{16}7-4[8:1],5,
,5,{8}7,2,2,6/3,6,4,{16}7<4[8:1],5,
,5,{8}7,2,2,3/6,6,4,{16}7V51[4:1],5,
,5,{8}7,{16}2,,,3,,,{8}8/4,{4}7-4[8:1]/5-1[8:1],
5bx/7bx,5/2h[8:1],3h[8:1]/7-5[8:1],{16}7/4-8[8:1],,,3,
{8}4x,2,{4}1/7h[8:1],6h[8:1]/2-4[8:1],{16}2/5-2[8:1],,,6,
{8}5x,7,{4}8<5[8:1]*>3[8:1],8,4-2[8:1]*-6[8:1],
4,{16}1>5[16:3],,,7,{8}1,8,{4}1qq7[16:3],
1/4,{24}2b<5[8:3],3,4,5,,,,,,,,,,,,,,,{8}4,
3,{4}2h[8:1]/7-4[8:1],7/1h[8:1],{16}1/5-8[8:1],,,2,
{8}5,3,{4}7h[8:1]/3-5[8:1],3/8h[8:1],{16}1<4[4:1],,,5,
{8}1,4,{4}3w7b[8:1],3,8x>3[8:1]/5x-1[8:1],
5/8,8/4h[8:1],2h[8:1]/6-8[8:1],{16}6/1-5[8:1],,,2,
{8}1x,3,{4}4h[8:1]/6h[8:1],7h[8:1]/3-1[8:1],{16}8-3[8:1],,,7,
{8}8x,6,{4}5<8[8:1]*>2[8:1],5,1-7[8:1]*-3[8:1],
1,{16}4V28[16:3],,,7,{8}4,6,{4}5v7[8:1],
1/5,{24}2b-8-6-4[8:3],3,4,5,,,,,,,,,,,,,,,{8}1,
2,{4}3h[8:1]/6-1[8:1],6/4h[8:1],{16}4/8-5[8:1],,,3,
{8}8,2,{4}6h[8:1]/1qq2[16:5],1/5h[8:1],4-8[8:1],
3,4-8[8:1]/1<6[8:1],4/1,7w3b[8:1],
7,{16}6pp4[16:5],,,1,{8}6,2,{16}3qq4b[4:1],,,5,
{8}3,6,{16}7qq8[4:1],,,2,{8}7,3,{16}4-8b[8:1],,,8,
{8}4,7,{16}6/1,,,5,{8}2V48[16:3],4,{4}2/5V71b[16:3],
5,{24}2-8[32:3],3,{6}4,2/5-1b[8:1],{24},,5/8,7,{6}6,
{24}2bx/8-4[8:1],3,4,5>2b[8:3],6,7,{4}8/Cf,{8},6,{4}6,
{8}4,5,{16}6/2p5[16:3],,,7,{8}2,8,{16}1q6b[16:3],,,4,
{8}1,3,{16}2pp6[8:3],,,5,{8}2,6>1[4:1],{4}7h[4:1],
{16},,,,7,8,6,2,8,4,6,2,{4}5h[#1.933441],
(154),B2/B3,{16},,,3,{4}4h[4:5],
,B6/B7,{16},,,7,{4}6h[2:1],
,5qq7[2:1],,6qq8[2:1],
,1pp5[2:1],{16},,,7,{4}6h[4:5],
,B5/B4/E5,{16},,,2,{4}3h[4:5],
,B8/B7/E8,{16},,,7,{4}6h[2:1],
,2v4[4:1],,6v8[4:1],
,5v7v1[2:1]*v3v1[2:1],,,,8/2bqq8[4:1],
{16},,,6,{4}5h[4:1],
1h[4:1],4bq8[4:1],{16},,,2,{4}3h[4:1],
8h[4:1],5bqq8[2:1],,6qq7[8:3],
,1pp1[8:3],{16},,,7,{4}6h[4:1],
8h[4:1],4b<8[4:1],{16},,,2,{4}3h[400:99],
(149)1h[4:1],5bqq2[2:1],{16},,,7,{4}6h[4:1],
,3bp2[0.4027##1.823]/7bp6[0.4027##1.823],,(128),
{16},,,,,,,,,,,Ch[4:1],(160){4},
{8},,3,3,5<8[8:1],5,{32}1xqq8b[16:3],2x,{16}3xh[16:3],,,,,,,{8}4,
4,8<5[8:1],8,{32}3xpp3b[16:5],2x,{16}1x,,,{4}7,
{16}8p3[8:1],,,2,{8}8,1,{16}8pp2[8:1],,,6pp8[8:1],
{8}8,6,4h[32:15],{24}E7,E6,E5,E4,E3,E2,E1,E8,E7,{32}3,2,{16}1V35[16:3],,,{4}7,
{8}6,6,4>1[8:1],4,{32}8xpp2b[4:1],7x,{16}6xh[16:3],,,,,,,{8}5,
5,1>4[8:1],1,{32}6xqq5b[4:1],7x,{16}8x,,,{4}2,
{16}1q5[8:1],,,7,{8}1,8,1q6[16:3],4,
3,2,1h[32:15],{24}E7,E8,E1,E2,E3,E4,E5,E6,E7,{32}2,3,{16}4h[16:3],{32},,,,7,
6,{16}5h[16:3],{32},,,,2bV41[4:1],1x,{16}8x,6,6,{8}2,8,{32}7,6,{16}5h[16:3],{32},,,,2,
3,{16}4h[16:3],{32},,,,7bV51[4:1],8x,{16}1x,3,3,{8}7,2,{32}3,4,{16}5h[16:3],{32},,,,8,
7,{16}6h[16:3],{32},,,,2b-5[8:1],1x,{16}8x,5,5,{8}2,6,4/7bV53[16:3],{16}8,3-7[8:1],
{8}7,2,1bh[32:15],{24}E7,E6,E5,E4,E3,E2,E1,E8,E7,{32}2,3,{16}4h[16:3],{32},,,,7,
6,{16}5h[16:3],{32},,,,2bpp1[4:1],1x,{16}8x,6,6,{8}2,8,{32}7,6,{16}5h[16:3],{32},,,,2,
3,{16}4h[16:3],{32},,,,7bqq7[4:1],8x,{16}1x,3,3,{8}7,1,{32}2,3,{16}4h[16:3],{32},,,,7,
8,{16}1h[16:3],{32},,,,3b-8[8:1],4x,{16}5x,,7,{8}3,6,{16}1b,4,3,7,
5b,6,2,8,{8}1b,{24}E6,E5,E4,{4}8x-4[8:1],6b-2[8:1]*>5-3>2[8:1],
{8},,1/8,{16}3,4,{8}2h[8:1],{16}8-4[8:1],7,{8}6-1[8:1],8,
6,{32}2x,3x,{16}4x,,,7,5,{8}6h[8:1],{16}1qq6[16:5],2,{8}3h[8:1],1,
{32},,,,2x,3x>7[32:11],{16}4x,,,{8}7,6,5,{4}4V68[16:3],
{8}4/8,2,3,1/2,7/8,5/6,{16}7,4,6,3,
5,2,{8}4,1,{16}7,8,{8}6h[8:1],{16}2v7[8:1],3,{8}4v1[8:1],2,
4,{32}7x,6x,{16}5x,,,2,4,{8}3h[8:1],{16}8pp4[8:3],7,{8}6h[8:1],8,
{32},,,,,,7,6,{8}5x,3,4/6,3/5,{16}2,4,1,8,
5,7,4,6,3b,5,2,8,4b,6,1,7,3b,5,2,8,
4b,6,3,5,{8}2-6[8:1],{16}5,6,{8}7/2x,8qq7[16:3],{16}4,3,{8}8x/2pp1b[4:1],
1,2b,{16},,7,6,{8}5x,1>4[64:7],{16}5qq1b[8:3],6,{8}7/1x,
,8b,{16},,7,6,{8}5,2/4,{16}1,4,3,3,
7,5,6,6,3,4,1,8,5,6,8,7,{32}1bpp1[4:1],2,3,4h[32:5],,,,,,,,,,,,,{8}4-8[8:1],
{16}8,7,{8}6/4x,5<1b[16:3],{16}1,2,{8}5x/3pp4[16:3],
4,3b,{16},,3x/7,2x/6,{8}1x/5V71[16:3],4,{16}1/5,2,{8}3xh[8:1],
{16},,4,6,3,5,2,7,4,5,2,1,3,6,5,7,
8,5,4,6,{4}3xw7b[8:1],B3/B7/Cf,5bx-1[8:1]/8bx>3b[8:1],
E
&inote_6=
