&title=Neon tetra
&artist=ginkiha feat.TEA
&first=0.071
&des=Orange
&lv_5=14
&inote_5=(172)
{1},
{8}5,,4,4,,5,5-8[2:1],,
{1},
{8}3,,6,6,,3,3-6[2:1],,
{1},
{8}7,2,7,2,,7,7-2[2:1],,
{1},
{8}1,8,1,8,,1,1-4[2:1],,,,,,5x-8[8:1]b,,,,
{8}2hx[8:9],,4,4,,3,3,,1,
{16}1,,8,,7-4-6[4:1],,
{8}8,1,2,3,
{8}7hx[8:9],,5,5,,6,6,,8,
{16}8,,1,,2-5-3[4:1],,
{8}1,8,7,6,
{8}2hx[8:9],,5,5,,4,4,,3,
{16}4,,5,,6pp6[4:1],,
{8}1,2,3,4,
{8}7hx[8:9],,4,4,,5,5,,6,
{16}5,,4,,3p2[4:1],,
{8}7,6,5,4,
{8}1x-5[8:1],7-4[8:1],1,7,,
{16}8-6[8:1],,1h[8:3],,
{8},,
{16}5,,6,,7V51[4:1],,
{8}5,4,3,2,
{8}8x-4[8:1],2-5[8:1],8,2,,
{16}1-3[8:1],,8h[8:3],,
{8},,
{16}4,,3,,2V84[4:1],,
{8}4,5,6,7,3x-6[8:1],7-2[8:1],3,7,,4,1-5[4:1],,,
{16}E4,E3,E2,E1,E8,E7,E6/8x,,7x,,6x,,5x,,
{8}2b/E5,,,8b/E3,,,5b-7-3[2:1]b/1b-3-7[2:1]b,,
{4},,,
{16}1,8,1,8,
{4}2>6[2:1],5,6<2[2:1],1,2pp2[2:1],,1-6[8:1],1,
{4}7<3[2:1]/1,4,3>7[2:1],8,7qq7[2:1],,8-3[8:1],8-4[8:1],
{4}4>8[2:1]/8,6,8<4[2:1],2,4p4[2:1],6,8<5[8:1],8,
{8}3,3,2-5[8:1],,2,7-4[8:1],,7/1w5[8:1],,1,,28,,3-7[8:1],7-3[8:1],,
{8}8,8,2,2,1<4[2:1],,5,,4,,3,3,2-4[8:1]/8-4-6[4:1]b,,8/2,,
{8}1,1,7,7,8>5[2:1],,4,,5,,6,6,1-5-3[4:1]b/7-5[8:1],,17,,
{8}8,8,2,2,3-1-7-5[2:1],,4,,3,,2,2,1-4[8:1]*-6[8:1]b,28,
{8}A1,,3-8[8:1]/5,7-3[8:1]/1,3,7,,2,1b-3-7[2:1]b/5b-7-3[2:1]b,,,,,,,,
{8}E5f/E6/E4/A6/A3,,
{16}2,3,4,5,7,6,5,4,8,1,2,3,6,7,8,1,5,6,7,8,4,5,6,7,
{4}8<5[8:1]/4>1[8:1],48,
{16}8,4,8,4,1,5,1,5,2,4,3,5,4,6,5,,
{4}4x>1[8:1]/7x-3[8:1],4x/7x,6x/8xpp8[4:1],A8,
{16}7,6,5,4,2,3,4,5,1,8,7,6,3,2,1,8,4,3,2,1,5,4,3,2,
{4}1-5[8:1]/5-7[8:1],51,
{8}48,48,37,2x-5[8:1]/6x<1[8:1],,2x/6xpp4[8:5],,C/6x,
{4},,
{8}3,,
{8}E1f/E8/E2/A7/A2,,
{16}1,2,3,4,51,8,7,6,53,2,1,8,74,3,2,1,85,4,3,2,17,6,5,4,
{4}3-8[8:1]/1-5[8:1],31,
{16}7,4,7,4,5,2,5,2,4,3,1,2,8,1,7,,
{4}8x>3[8:1]/6x>3[8:1],6x/8x,1xpp1[4:1]/5x,A1,
{16}8,7,6,5,48,1,2,3,46,7,8,1,25,6,7,8,14,5,6,7,82,3,4,5,
{4}6-2[8:1]/8-2[8:1],68,
{8}43,45,56,4x-8[8:1]/7x<4[8:1],,4x/7x,,2bxq3[8:5]b/6bxq7[8:5]b,,,,,,,,,
{24}8hx[1:1]/2x,3x,4x,5x,,,,,,3x,4x,5x,6x,,,,,,4x,5x,6x,7x,,,
{16}1,4,3,7,5,6,4,8,2,6,1,1,5,5,3,3,
{8}7-3[8:1]b,8-4[8:1],7,8,,
{8}6-8[8:1],8-4[8:1],4-2[8:1],,1-5[8:1],,1>4[8:1]*<6[8:1],,1,,,
{24}8x/7x,6x,5x,4x,,,,,,1x/2x,3x,4x,5x,,,,,,2hx[4:1]/8x,7x,6x,5x,,,
{16}7,5,6,2,4,3,5,1,7,3,8,8,4,4,6,6,
{8}2-6[8:1]b,1-5[8:1],2,1>4[8:1],,
{24}8x,7x,6x,
{4}5hx[4:3],
{2},
{32}D2,D3,D4,D5,D6,D7,D8,,
{4},
{4}8h[4:1]/1,4h[4:1],
{16}5,,5h[8:1],,4,5,3,,5h[8:1],,4h[8:1],,
{24}5,4,6,4h[8:1],,,
{8}5,5h[8:1],
{16}4,6,3,5,4h[8:1],,5h[8:1],,4,,5h[8:1],,4,5,4h[8:1],,
{24}5,3,5,4h[8:1],,,5,,,5h[8:1],,,
{4}4-8-2-6[8:3],4,,
{16}5,4,5h[8:1],,4h[8:1],,6,,
{24}4,5,4,5h[8:1],,,
{16}4,5,4h[8:1],,
{8}6,5h[8:1],4h[8:1],5,3/6-2-8[4:1],,6,,
{16}4h[4:1],,5,,5h[8:1],,4,6,4h[8:1],,
{24}5,3,5,
{16}4,5,4,5,4,5,4,5,4,5,
{8}3<6[8:1],,3,7b,,
{8}1/6-4[8:1],7,6/1-5[8:1],2,1/7-4[8:1],8,7/2-5[8:1],3,
{8}2-8[8:1],7-3[8:1],2-6[8:1],7<4[8:1]b,2,,
{32}E1,E8,E7,E6,E5,E4,E3,E2,
{8}7x-5[8:1]b,8-2[8:1],7-3[8:1]b,8-4[8:1],7,8,
{8}5,5w1[8:1],,A5/D6/D5,,,6pp8[8:1]/2pp4[8:1],,62,,
{8}7/3-5[8:1],2,3/8-4[8:1],7,8/2-5[8:1],1,2/7-4[8:1],6,
{8}7-1[8:1],2-6[8:1],7-3[8:1],2>5[8:1]b,7,,
{32}D1,D2,D3,D4,D5,D6,D7,D8,
{16}2x,1,2,1,3,8,3,8,4,7,4,7,5,6,5,6,4,5,3,4,2,5,4,7,1-5[8:1]b,5,3,7,
{4}1b<6[8:1],
{48}A5/D5/E5f,A4,D4,A3,D3,A2,D2,,,,,,
{8}8,8,,1,1pp1[2:1],,
{4}8,7,6,5,
{8}7,,2,2,,7,7qq7[2:1],,
{1},
{8}3,6,3,6,,3,3qq3[2:1],,
{1},
{8}5,4,5,4,,5,5pp5[2:1]b*qq5[2:1]b,,,,,,,,,,
E
