&title=Mami Mami Zone
&artist=REDALiCE feat. 野宮あゆみ
&first=-0.2
&des=马克菠萝蜜
&lv_4=1
&lv_5=12
&inote_2=(173)
{1},,,
&inote_3=(173)
{1},,,,
&inote_4=(173)
{1},,,,
&inote_5=(173)
{8},,,,,,
{8}2h[8:10]/5,,4,,5,,4,,5,,4,,2-4[8:1],,2/5,,
{8}7h[8:10]/4,,5,,4,,5,,4,,5,,7-5[8:1],,7/4,,
{8}2h[8:2]/5,,4,,1h[8:2]/5,,4,,2h[8:2]/5,,4,,1w5[8:1],,1,,
{8}7h[8:2]4,,5,,8h[8:2]/4,,5,,8w4[8:1],,,,,5bx,5bx,5bx,
{16}7x/4x,,6,5,6,,74,,8<5[8:1],,1,,2,,3,,4,,6,5,6,,7,,8-5[8:1]*-3[8:1],,,,8,,,,
{16}2x/5x,,3,4,3,,25,,1>4[8:1],,8,,7,,6,,5,,3,4,3,,2,,1-6[8:1]*-4[8:1],,,,1,,,,
{16}7x/4x,,6,5,7,,8,,1>4[8:1],,8,,7,,6,,5,,3,4,2,,1,,8-4[8:1]*-6[8:1],,,,8,,,,
{16}2x/5x,,3,4,2,,1,,8<5[8:1],,1,,2,,3,,4,,6,5,7,,8h[8:2],,,,1b,,1b/8b,,1b/8b,,
{16}18,,2,4,2,,15,,6<1[8:1],,,,2>5[8:1],,,,7,,7,,6,,6,,5,,5,,
{16}3-8[8:1],,4-7[8:1],,3,,4,,,,2h[8:2],,,,5,,7-5[8:1],,8-2[8:1],,7-3[8:1],,8-4[8:1],,7,,8,,,,
{16}8bx,,8bx,,8bx,,81,,7,5,7,,84,,3>8[8:1],,,,7<4[8:1],,,,2,,2,,3,,3,,4,,4,,
{16}25,,16,,8-3[8:1],,,6,,,5,,4-7[8:1],,,2,,,1,,1h[8:5],,8,,,,8,,,,
{16}8bx,,8bx,,8bx,,
{16}81,,7,5,7,,84,,3-8[8:1],,,,7-4[8:1],,,,2,,2,,3,,3,,4,,4,,
{16}6-1[8:1],,5-2[8:1],,6,,5,,,,7h[8:2],,,,4,,2-4[8:1],,1-7[8:1],,2-6[8:1],,1-5[8:1],,2,,1,,,,
{16}1bx,,1bx,,1bx,,18,,2,4,2,,15,,6-1[8:1],,,,2-5[8:1],,,,7,,7,,6,,6,,5,,5,,
{16}74,,83,,1h[8:3]/2,,,,,,2h[8:3],,,,,,3>6[8:6],,3,,,,,,,,,,,,3bx,,3bx,,3bx,,
{16}3hx[8:2]/4x,,5,,6,,3hx[8:2]/4x,,5,,6h[8:3],,,,,,5h[8:2],,,,4h[8:2],,3,,3>1[8:1],,,,,,,,6hx[8:2]/5x,,4,,3,,6hx[8:2]/5x,,4,,3h[8:3],,,,,,4h[8:3],,,,,,5,,6-3[8:1],,7,,68,,,,
{16}2hx[8:2]/1x,,8,,7,,2hx[8:2]/1x,,8,,7h[8:3],,,,,,8h[8:3],,,,,,3h[8:3],,,,,,5V72[8:6]b*V38[8:6]b,,5,,,,,,,,,,,,,,,,,,
{16}17,,17,,,,82,,,,63,,63,,63,,7b/5b,,,2b/4b,,,6b/3b,,8b/1bq5[8:1]*p5[8:1],,,,1b,,,,
{16}4x/3x-8[8:1],,,4,3,,5,,4x/3x-8[8:1],,,4,3,,5h[16:4],,,,6h[8:2],,,,7,,8q4[8:1],,1,,82,,,,4x/3x-8[8:1],,,4,3,,5,,4x/3x-8[8:1],,,4,3,,5,,6bv1[8:1],,,,3bv8[8:1]/6b,,,,3b/8bq4[8:1]*p4[8:1],,,,8b,,,,4x/3x-8[8:1],,,4,3,,5,,4x/3x-8[8:1],,,4,3,,5h[16:4],,,,6h[8:2],,,,7,,8p4[8:1],,1,,82,,,,3,4,3,4,2x/5x,,6x/3x,,4,5,4,5,6x/3x,,4x/7x,,5,6,5,6,5,6,5h[8:3],,,,7b,,7b,,,,
{16}5x/6x-1[8:1],,,5,6,,4,,5x/6x-1[8:1],,,5,6,,4h[16:4],,,,3h[8:2],,,,2,,1p5[8:1],,8,,17,,,,5x/6x-1[8:1],,,5,6,,4,,5x/6x-1[8:1],,,5,6,,4,,3bv8[8:1],,,,6bv1[8:1]/3b,,,,6b/1bp5[8:1]*q5[8:1],,,,1b,,,,5x/6x-1[8:1],,,5,6,,4,,5x/6x-1[8:1],,,5,6,,4h[16:4],,,,3h[8:2],,,,2,,1q5[8:1],,8,,17,,,,6,5,6,5,7x/4x,,3x/6x,,5,4,5,4,3x/6x,,5x/2x,,4,3,4,3,4,3,4h[8:3],,,,2b,,2b,,,,
{16}7,,5,6-1<7-4[8:3],4,,6,,3,,3,,2,,2,,2,,4,3-8>2-5[8:3],5,,3,,6,,6,,7b,,,,7,,5,6-1<7-4[8:3],4,,6,,3,,3,,2,,2,,2,,4,3-8>2-5[8:3],5,,3,,6,,6,,7b,,,,
{16}6,,8,7-4<6-1[8:3],1,,7,,2,,2,,3,,3,,3,,1,2-5>3-8[8:3],8,,2,,7,,7,,6b,,,,6,,8,7-4<6-1[8:3],1,,7,,2,,2,,3,,3,,3,,1,2-5>3-8[8:3],8,,2,,,,7b,,6b,,5b,,
{16}1x,,2,4,2,,15,,2<6[8:2],,,,6>2[8:2],,,,8x,,8x,,7x,,7x,,6x,,6x,,
{16}3-8[8:1],,4-7[8:1],,3,,4,,,,2h[8:2],,,,5,,7<4[8:1],,8>3[8:1],,7-3[8:1],,8-4[8:1],,7,,8,,,,
{16}8bx,,8bx,,8bx,,8x/1x,,7,5,7,,84,,7>3[8:2],,,,3<7[8:2],,,,1x,,1x,,2x,,2x,,3x,,3x,,
{16}25,,16,,8-3-1[8:2],,,6,,,5,,4-7-5[8:2],,,2,,,1,,1h[8:5],,8,,,,8,,,,
{16}8bx,,8bx,,8bx,,
{16}8bx,,7,5,7,,84,,7>3[8:2],,,,3<7[8:2],,,,1x,,1x,,2x,,2x,,3x,,3x,,
{16}6-1[8:1],,5-2[8:1],,6,,5,,,,7h[8:2],,,,4,,2>5[8:1],,1<6[8:1],,2-6[8:1],,1-5[8:1],,2,,1,,,,
{16}1bx,,1bx,,1bx,,1x/8x,,2,4,2,,15,,2<6[8:2],,,,6>2[8:2],,,,8x,,8x,,7x,,7x,,6x,,6x,,
{16}74,,83,,1,,2,,3,,4,,5,,6,,7xV53V17[8:6]b,,7x<7[8:5]/Chf[8:7],,,,,,,,,,,,,,,,,,
{16}{16}3hx[8:2]/4x,,5,,6,,3hx[8:2]/4x,,5,,6h[8:3],,,,,,5h[8:2],,,,4h[8:2],,3,,3-1[8:1],,,,,,,,6hx[8:2]/5x,,4,,3,,6hx[8:2]/5x,,4,,3h[8:3],,,,,,4h[8:3],,,,,,5,,6x-3[8:1],,7x,,6x/7x,,,,
{16}2hx[8:2]/1x,,8,,7,,2hx[8:2]/1x,,8,,7h[8:3],,,,,,8h[8:3],,,,,,3h[8:3],,,,,,5xs1z5[8:6]b,,5xz1s5[8:5],,,,,,,,,,,,,,,,,,
{16}46,,46,,,,53,,,,72,,72,,72,,6b/8b,,,3b/1b,,,7b/2b,,5b/4bp8[8:1]*q8[8:1],,,,B4,Cf,B8,,
{16}2x-5[8:1],,,1,21,,8,,2x-5[8:1],,,1,12,,8h[16:4],,,,7h[8:2],,,,6,,5q1[8:1],,4,,53,,,,2x-5[8:1],,,1,21,,8,,2x-5[8:1],,,1,21,,8,,7b-3[8:1],,,,2b-6[8:1]/7b,,,,2b/5bp1[8:1]*q1[8:1],,,,5b,,,,2x-5[8:1],,,1,21,,8,,2x-5[8:1],,,1,21,,8h[16:4],,,,7h[8:2],,,,6,,5q1[8:1],,4,,53,,,,2v5[8:1],1,3,1,2,,8x,,7v4[8:1],8,6,8,7,,1x,,2,4,3,5,4,6,5h[8:2],,,,7b,,7b,,,,
{16}7x-4[8:1],,,8,78,,1,,7x-4[8:1],,,8,87,,1h[16:4],,,,2h[8:2],,,,3,,4p8[8:1],,5,,46,,,,7x-4[8:1],,,8,78,,1,,7x-4[8:1],,,8,78,,1,,2b-6[8:1],,,,7b-3[8:1]/2b,,,,7b/4bq8[8:1]*p8[8:1],,,,4b,,,,7x-4[8:1],,,8,78,,1,,7x-4[8:1],,,8,78,,1h[16:4],,,,2h[8:2],,,,3,,4p8[8:1],,5,,46,,,,7v4[8:1],8,6,8,7,,1x,,2v5[8:1],1,3,1,2,,8x,,7,5,6,4,5,3,4h[8:2],,,,2b,,2b,,,,5-1[8:4],,,,,,,,,,,,,,,,
{16}7x,,5,6,5,,74,,2-5[8:1],,1-6[8:1],,2,,1,,2x,,4,3,4,,25,,7-4[8:1],,8-3[8:1],,7,,8,,6x,,8,7,8,,16,,3-8[8:1],,4-7[8:1],,3,,4,,3x,,1,2,1,,83,,6-1[8:1],,5-2[8:1],,6,,5,,
{16}7x,8,6,1,5,2,4,3,4x-7[8:1]/3x-8[8:1],,2x/5x,,3x/4x,,,,2x,1,3,8,4,7,5,6,5x-2[8:1]/6x-1[8:1],,7x/4x,,6x/5x,,,,
{16}4,5,3,6,2,7,1,8,2,1,3,8,4,7,5,6,3,4,2,5,1,6,8,7,1,2,3,4,8,7,6,5,4bw8[8:4],,,,,,,,,,,,,,,,
{16}6hx[8:2]/A5,,A4,,A3,,6hx[8:2]/A5,,A4,,3hx[8:3],,,,,,5hx[8:5],,,E7/B7,,,E1/B1,,,,B2/E3,,,,,,6hx[8:2]/A5,,A4,,A3,,6hx[8:2]/A5,,A4,,3hx[8:3],,,,,,4hx[8:3],,,,,,5x,,A6,A7,A8,A1,A2,A3,A4,A5,
{16}6hx[8:2],,4x,,3x,,6hx[8:2]/5x,,4x,,3hx[8:3],,,,,,5hx[8:3],,,,,,7hx[8:3],,,,,,1bxqq5[8:6]*pp5[8:6],,1xb,,,,,,,,,,,,,,,,,,
{16}46,,46,,,,53,,,,72,,72,,72,,6bx/8bx,,,3bx/1bx,,,7bx/2bx,,5bx/4bx,,,6bx/3bx,,,2bx/7bx,,1bx/8bx,,,2bx/3bx,,,7bx/6bx,,5bx/4xbp8[8:1]*q8[8:1],,,,A4f/C/A8,,,,
{16}2x-5[8:1],,,2,21,,8,,2x-5[8:1],,,1,12,,8h[16:4],,,,7h[8:2],,,,6,,5q1[8:1],,4,,53,,,,2x-5[8:1],,,2,21,,8,,2x-5[8:1],,,1,21,,8,,7bp3[8:1],,,,2bp6[8:1]/7b,,,,2b/5bp1[8:1]*q1[8:1],,,,5b,,,,2x-5[8:1],,,1,21,,8,,2x-5[8:1],,,2,21,,8h[16:4],,,,7h[8:2],,,,6,,5q1[8:1],,4,,53,,,,2v5[8:1],1,3,8,2,,8x,,7v4[8:1],8,6,1,7,,1x,,2,4,3,5,4,6,5bhx[8:2],,,,7b,,7b,,,,
{16}7x-4[8:1],,,7,78,,1,,7x-4[8:1],,,8,87,,1h[16:4],,,,2h[8:2],,,,3,,4p8[8:1],,5,,46,,,,7x-4[8:1],,,7,78,,1,,7x-4[8:1],,,8,78,,1,,2bq6[8:1],,,,7bq3[8:1]/2b,,,,7b/4bq8[8:1]*p8[8:1],,,,4b,,,,7x-4[8:1],,,8,78,,1,,7x-4[8:1],,,7,78,,1h[16:4],,,,2h[8:2],,,,3,,4p8[8:1],,5,,46,,,,7v4[8:1],8,6,1,7,,1x,,2v5[8:1],1,3,8,2,,8x,,7,5,6,4,5,3,4bhx[8:2],,,,2b,,2b,,,,
{16}1,5,2,6,3,7,4,8,,,1bx/5bx,,8bx/4bx,,,,3,7,2,6,1,5,8,4,,,7bx/3bx,,1bxv3>3[8:32]/5bxv7<7[8:32]b,
