&title=明日散る運命なら
&artist=幽闭サテライト
&first=0
&des=276
&lv_5=13
&des_5=276
&inote_5=
(145){4},,,,{2}B6/E7,
B2/E3,
E6/B5,B1/E2,
A6/B6,B2/A2,
{4}A7/B7/Ch[2:1],,,8,
8<4[8:5],3,2,1,
1>5[8:5],6,7,8,
{2}8-5[8:1]*v3[8:1],4-1[8:1]/6v1[8:1],
{8}8/7,6,3/5,2,{4}8-5[8:1]/1-4[8:1],8b/1b,
2>5[8:1],B6/E7,8<5[8:1],B4/E4,
1>4[8:1],E7/B6,7<4[8:1],E2/B2,
3>8[8:1],3/5,6<1[8:1],6/4,
3>8[8:1],5/3,7>2[8:1]*<4[8:1],7,
{1}3bpp6[4:5],
{4},,,7,
{1}7bpp2[4:5],
{8},,,,,,,,E6/E5,
E7,{4}E8,{8}E4/B5,E3,{4}E2,
{8}E6/B4,E7,{4}E8,{8}E5/E4,E3,{4}E2,
{8}7h[4:3],A6,A5,A4,A3,A2,{4}A1,
{8}2h[4:3],E6,E7,E8,{2}Ch[4:1],
{8}7/1,3,8/2,6,{16}4/3V17[8:1],,,6,{8}3,5,
6/4,2,5/3,7,{16}8/2V46[8:1],,,7,{8}2,8,
1/7,6,8/2,3,{16}5/6V82[8:1],,,4,{8}6,3,
4,5,6,7,{2}8v5[8:1]*-3[8:1],
{8}4x>1[8:1],5,{4}6/4,{8}5x<8[8:1],4,{4}3/5,
{8}2x-5[8:1]/1xV35[8:1],3/8,,,7x-4[8:1]/8x-4[8:1],6/1,,,5/3,
2,6/4,8,{16}1V35[8:1],,,7,{8}1,8,
6,5,4,3,{4}2/E7/B6,8/B2/E3,
{16}4/6,,,3,{8}5,5,{2}4-8[8:1]*v1[8:1],
{8}2/7<4[8:1],6,7/3p7[8:1],2,{16}3/5,,,6,{8}8,8,
{16}7/1,,,3,{8}4,3,{16}2/8,,,6,{8}5,6h[4:1],
8-3[8:1],8,4-7[8:1],4,{16}2,,,2,{8}8,8,
{4}1x>5[4:1],5x<1[4:1],{2}1xw5[8:1],
{8}3/7,4,{4}6/5,{8}6/2,5,3/4,2,
1/5,2/6,7/3,8/4,{4}5/1v6[8:1],{8}3>5[2:1],3,
7xh[8:7],,,,,4,3,2,
8/1,7/2,6/3,5/4,{4}1>4[8:1]/8<5[8:1],8b/1b,
{8}7/2>5[8:1],3,2/6q2[8:1],7,{16}6/4,,,3,{8}1,1,
{16}2/8,,,6,{8}5,6,{16}7/1,,,3,{8}4,3h[4:1],
1-6[8:1],1,5-2[8:1],5,{16}7,,,7,{8}1,1,
{4}8x<4[4:1],4x>8[4:1],{2}8xw4[8:1],
{8}6/2,5,{4}3/4,{8}3/7,4,6/5,7,
8/4,7/3,2/6,1/5,{4}4/8v3[8:1],{8}6<4[2:1],6,
2xh[8:7],,,,,5,6,7,
1/8,2/7,3/6,4/5,{4}8<5[8:1]/1>4[8:1],1/8,
{2}B7/B8,B3/B4,
E6/E7,E2/E3,
{8}E6/E5,E7,{4}E8,{8}E5/E4,E3,{4}E2,
{8}E7,E6,E3,E4,{2}Ch[4:1],
{8}8/1,1/8,7/2,6/3,{16}5/4,,,1/3,,,{8}8/6,
{16}4/5,,,2/4,,,{8}5/7,{16}8/1,,,7/2,,,{8}6/3,
{16}4,5,4,5,3,6,3,6,2,7,2,7,1,8,1,8,
{8}7/2,3,{4}4/8,{16}3,2,1,8,5,6,7,8,
{8}2/1,3,4/6,7,{16}1/8,,,2,{8}4,5/3,
{16}6/4,,,7,{8}5,8/1,{16}4/2,,,5/7,,,{8}8/1,
{16}2,7,3,6,1,8,2,7,4,5,3,6,4,5,2,7,
3h[16:3],,,1h[16:3],,,{8}5,{16}5h[16:3],,,7h[16:3],,,{8}3h[8:17],
{1}E3/E4,
{2}E1/E2,E7/E6,
{1}7h[2:3],
{2}E8/E7,E3/E4,
1-4[8:1]*q6[8:1],8-5[8:1]*p3[8:1],
1v6[8:1]*-4[8:1],5-8[8:1]/3v8[8:1],
1>4[8:1]/7<4[8:1],8<5[8:1]/2>5[8:1],
{8}7-3[8:1],7,8-4[8:1],8,1-5[8:1],1,2pp1<3[8:7],2,
{1}E8f/B7/B8,
{4}4/6,3/5,6/4,5/3,
{16}7<4[8:1],,,1,{8}7,2,{16}2>5[8:1],,,8,{8}2,7,
{32}8x,1x,2x,3x,4x,5x,6x,7x,8x,1x,2x,3x,4x,5x,6x,7x,{2}8x/Cf,
{8}2/7<4[8:1],6,7/3p7[8:1],2,{16}3/5,,,6,{8}8,8,
{16}7/1,,,3,{8}5,4,{16}2/8,,,6,{8}4,5h[4:1],
8v3[8:1],8,4<7[8:1],4,{16}2,,,2,{8}8,8,
{4}1bx-5[8:1],1b<6[8:1]*>4[8:1],{2}1bw5[8:1],
{8}3/7,4,{4}6/5,{8}6/2,5,4/3-1[8:1],5,
3/6-4[8:1],7,6/3-8[8:1],2,{4}3/7<4[8:1],{8}1/7qq1[2:1],2,
2h[2:1],,,,,3,7,6,
{32}4x,3x,2x,1x,8x,7x,6x,5x,4x,3x,2x,1x,8x,7x,6x,5x,{4}4bx-8[8:1]*v1[8:1],4bx,
{8}7/2>5[8:1],3,2/6q2[8:1],7,{16}6/4,,,3,{8}1,1,
{16}2/8,,,6,{8}4,5,{16}7/1,,,3,{8}5,4h[4:1],
1v6[8:1],1,5>2[8:1],5,{16}7,,,7,{8}1,1,
{4}8bx-4[8:1],8b>3[8:1]*<5[8:1],{2}8bw4[8:1],
{8}6/2,5,{4}3/4,{8}3/7,4,5/6-8[8:1],4,
6/3-5[8:1],2,3/6-1[8:1],7,{4}6/2>5[8:1],{8}8/2pp8[2:1],7,
6h[2:1],,,,,7,6,5pp4b[8:5]/3qq4b[8:5],
,,,,,,,,{2}B6/B5,
B1/B2,
B3/B4,B8/B7,
7h[2:1],{4}6,5,
{8}4h[8:3],,,3h[8:5],,,,,2h[8:5],
,,,,8-4b[0.8276##4.7586],,,,8xh[8:23],
E
