&title=Hello[SD]
&artist=ToHeart2 コンプリートサウンドトラック
&first=0
&des=Cyanide.
&des_5=Cyanide.
&lv_5=11+
&inote_5=(135){4},,,6-1[2:1],
5h[8:3],,,3-6[2:1],
2h[2:1],,,2-5[2:1],
1h[8:3],,,7-2[2:1],
{1}6h[2:1],
{8}1<6[2:1],,,2,,,{4}8>3[2:1],
8h[2:1],,,5,
{2}4-7[2:1],7-3[2:1],
{8}3>8[2:1],,,,,6-3[8:7],6,6b,
,,,,,,,,{2}8h[4:1]/1<6[4:1],
{8}4,5-8[8:5],,5,
,,,,,,4,3,
{2}2h[4:1]/3>8[4:1],{8}7,6-3[8:5],,7h[8:5],
,,,,,,,1,
{4}8>3[8:1],{8}7,8<5[8:1],,,,8,
{4}1-4[8:1],{8}7,8-4[8:1],{16},,,,,,3,2,
{8}1<6[8:1],,,4,{4}5-2[8:1],5-1[8:1],
{8}5,4,3,2-6[4:1],,,,,{2}1h[4:1]/8>3[4:1],
{8}5,4-1[8:5],,4b/5h[8:3],
,,,,,,5,6,
{2}7h[4:1]/6<1[4:1],{8}2,3-6[8:5],,3b/2h[8:3],
,,,,,,,8,
{4}1<6[8:1],{8}2,1>4[8:1],,,,1,
{4}8-3[8:1],{8}7,1-5[8:1],{16},,,,,,6,7,
{4}8>3[8:1],{8}5,4<7[8:1],,4-8[8:1],,4>1[8:1],
,,,,{4}4h[2:1],3,
{2}2-7[8:3],{8}5,5,4-1[8:3],4,
,,,,{4}5h[2:1],6,
{8}7-2[2:1],,,,,4,5-8[2:1],5,
,2-5[8:1],,,,,,,{4}3,
3,{8}3,4,3,2-6[4:1],
,4,4,5h[4:1],,,3-7[8:1],7>2[8:1],
,,,,2-6[8:1],6<1[8:1],{4}2>5[4:3],
,,7-3[8:1],7,
{8}4,3,2,1,2,7,{4}5-8[8:1]/4-1[8:1],
{8}5b/4b,,,1/8h[8:1],1,7/2,6/3,5<8[4:1]/4>1[4:1],
,,,,,1-5[4:1],8,2,
,,,,8-4[4:1],6,7,8,
,7,{4}6>3[4:1],,7-3[8:1],
8-4[8:1],1-5[8:1],2-6[8:1],{8}7,8-4[8:3],
,,,,,,1/8,7/2,
{4}6/3-8[8:1],3/6-1[8:1],{8}6/3,4,3<6[4:1],3>8[4:1],
,,,,,,{4}8-5[8:1]/1-4[8:1],
{8}8b/1b,,,4/5h[8:1],4,6/3,7/2,8<5[4:1]/1>4[4:1],
,,,,,4-8[4:1],5,3,
,,,,5-1[4:1],7,6,5,
,6,{4}7>2[4:1],,6-2[8:1],
5-1[8:1],4-8[8:1],3-7[8:1],{8}6,5-1[8:3],
,,,,,5/4,3/6,7/2,
{1}2>5[2:1]/7<4[2:1],
{8}7b/2b,,,8/7,{4}6/8-4[8:1],{8}3/8b,2-6[8:5],
E
