&title=異星にいこうね
&artist=いよわ
&first=0
&des=いよわ ♡ LOVE ♡
&lv_5=13+
&inote_5=(192){1},
6-3[2:1]/3-6[2:1],
{4}7h[4:1],{12}4,,5,3,,3,4,,,
{4}2h[4:1],{12}5,,3,7,,7,5,,,
{4}6h[4:1],{12}2,,5,1,,1,4,,,
{4}3h[4:1],{12}8,,4,7,,7,5h[4:1],,,
{4}1<6[8:1],3,1>4[8:1],7,
8-5[8:1],2,8-3[8:1],6,
7v4[8:1],3,1>5[4:1],5<1[4:1],1b,,
3h[6:1]/6h[6:1],,
{4}2h[4:1],{12}5,,3,8,,8,5,,,
{4}7h[4:1],{12}8,,6,2,,2,4,,,
{4}1h[4:1],{12}3,,2,8,,8,5,,,
{4}6h[4:1],{12}1,,5,2,,2,4h[4:1],,,
{4}1>4[8:1],7,8<5[8:1],3,
2-5[8:1],6,1-6[8:1],4,
3p7[8:1],6,5V31[4:1],1V75[4:1],5bpp4[8:3],,3h[6:1],,
1>4[8:1],7,1>4[8:1],3,
{12}1,,1,7h[4:1],,,5,,5,6h[4:1],,,
{4}4>1[8:1],6,4>1[8:1],2,
{12}3,,3,4h[4:1],,,1,,1,7h[4:1],,,
{4}8<5[8:1],6,8<5[8:1],3,
{12}2,,2,8h[4:1],,,4,,4,5h[4:1],,,
3,4,3,5,4,5,3,4,2,5,4,6,1,7,1,7,,4,{2}5,
{12}2b-5[8:1],,,6,,7,6>3[8:1],,,8,,,
2-5[8:1],,,6,,7,6>3[8:1],,,8,,,
8-4[8:1],,2,8,,,1-5[8:1],,7,1,,,
6,,,27,,1-5[8:1]/8-4[8:1],{4},,
7<5[8:1],3>1[8:1],4h[4:1],8h[4:1],
5p1[4:1],1p5[4:1],5>1[4:1],1<5[4:1],
{12}4b,,,1,,,2,,2,4,,,3,,,78,,,6,,6,5,,,
7-4[8:1],,,3,,1,3<6[8:1],,,2,,,
7-4[8:1],,,3,,1,3<6[8:1],,,2,,,
3-6[8:1],,5,3,,,7-4[8:1],,5,7,,,
3,,,28,,7-4[8:1]/3-6[8:1],{4},,
8p1[4:1],1,3-6[8:1],7,8<4[4:1],4>8[4:1],8<4[4:1],4,
1b-5[8:1],7,8V62[4:1],2,4z8[2:1],,,,
{12}5/6h[4:1],,,4,,8,3,,3,4,,,
3h[4:1]/5,,,6,,1,7,,7,5,,,
8h[4:1]/4,,,2,,6,1,,1,4,,,
2h[4:1]/5,,,8,,4,7,,7,5,,,
48,,4/8w4[8:1],{4},,
{12}2>5[8:1],,6,2,,,7-1[8:1],,5,7,,,
4-2[8:1],,8,4,,,7<4[8:1],,1,7,,,2,,6-1[8:1],2b-5[8:1],,,
{4},4qq4[4:1]*pp4[4:1]/8,,,
{12}4/3h[4:1],,,5,,2,6,,6,4,,,
7h[4:1]/5,,,4,,5,2,,2,4,,,
1h[4:1]/5,,,7,,2,8,,8,4,,,
6h[4:1]/2,,,3,,7,5,,5,6,,,
{4}3b>8[8:1]/4,,{12}5-7[8:1],,1,5,,,
{4}4b>8[16:3]/8,,{12}6-8[8:1],,2,6,,,
{4}5b>8[4:1]/1,,{12}7-3[8:1],,3,7,,,
{4}1bp4[4:1],,5<4[4:15],,4>5[4:13],,,,{1},,,
{2}5h[4:1]`7h[4:1],5h[4:1]`6h[4:1],
4h[4:1]`5h[4:1],3h[4:1]`4h[4:1],
2h[4:1]`4h[4:1],1h[4:1]`8h[4:1],
2z6[2:1]`7s3[2:1],,
{4}4b>1[8:1]/5b<8[8:1],,
2q6[8:1],28,{12}1p5[8:1],,3,1,,,1>4[8:1],,7,1,,,
8-3[8:1],,2,8,,,1-6[8:1],,7,1,,,8,,3,6,,4-7[8:1]/5-2[8:1],
{4},,
8>3[8:1],2,1q5[8:1],5,
6<1[8:1],4,5q3[4:1],8,
7b-4[8:1],37,{12}2,,2,4,,,
{4}3-5[8:1],73,{12}6,,6,5,,,
1-5[8:1],,,6,,8,6>3[8:1],,,1,,,7-3[8:1],,,3,,2,4<7[8:1],,,1,,,
1p5[8:1],,7,1,,,8q4[8:1],,3,8,,,2,,6,3,,4q8[8:1]/5p1[8:1],
{4},,
2q8[4:1],5,6q4[4:1],1,3qq5[32:11],5,7pp3[32:11],4,
2bv5[8:1],4>1[8:1],6h[4:1],2>2[8:13],8z4[8:11],{4},,,,,,,
{12}3,4,2,8,1,7,3,4,2,7,8,6,3,4,2,7,5,6,4<7[8:1],,,2b,,,
1,8,2,7,5,6,1,8,2,6,4,5,1,8,2,5,3,4,2>4[8:1]*<8[8:1],,,,,,
{16}6,5,6,,3,,8,,2,4,2,,6,,3,4,1,,7,,4,,6,5,8,,,,1b,,,,
3,4,3,,8h[8:1],,,,3,4,3,,8h[8:1],,,3,{12}6,5,6,8,7,8,6,5,6,4,5,4,
{4}7-5[8:1],1-7[8:1],4-8[8:1],,
2>4[8:1],8>2[8:1],5p8[8:1],,
6-4[8:1],3-6[8:1],7-1[8:1],2-6[8:1],
8<6[8:1],5-8[8:1],4v1[8:1],2>4[8:1],
{12}8,,,3,,6,5,,,7,,2,
{4}4>1[8:1]*<7[8:1],4b,8-3[8:1]*-5[8:1],8b,
{12}26,,,4,,57,5-1[8:1]/7-5[8:1],,,57,,,
{4}2h[16:1],1h[16:1],8h[16:1],7h[16:1],
4>1[8:1],6,4>1[8:1],2,
{12}3,,3,8,,8,1-4[8:1],,,,,,
{4}8<5[8:1],2,8<5[8:1],6,
{12}7,,7,1,,1,4-8[8:1],,,,,,
{4}1>4[8:1],7,1>4[8:1],3,
{12}2,,2,6,,6,8-5[8:1],,,,,,
{12}7,5,6,3,4,3,7,5,6,2,4,2,8,1,7,2,,5-8[32:31],4-1[8:7],,,
{4},,,,,
{12}1b>5[4:1],,,7,,8,8>4[4:1],,,5,,,
7>4[16:5],,,5,,6,6<3[16:5],,,1,,,
{4}5<1[4:1],1>5[4:1],5<1[4:1],1>5[4:1],5qq7[2:1],6,8-4[8:1],,
{12}3-5[8:1],,,36,,,7-4[8:1],,3,7,,,
2-5[8:1],,,27,,,8-4[8:1],,3,8,,,
1b>4[8:1],,,15,,,6-2[8:1],,4,6,,,
8>3[8:1],,,78,,,5-1[8:1],,4,5,,,
{2}3-7[2:3],
4h[8:1],5h[8:1],6h[8:1],
7-3[2:3],
8h[8:1],1h[8:1],2h[8:1],
1qq4[2:3]/5h[8:1],5h[8:1],5h[8:1],5h[8:1],8h[8:1],
{4}36,4/5s1[2:1],2,2,4,,
5/6h[4:1],{12}4,,8,3-1[8:1],,,4,,,
{4}8h[4:1]/7,{12}6,,1,5-7[8:1],,,4,,,
{4}8h[4:1]/3,{12}2,,7,1>3[8:1],,,5,,,
{4}4h[4:1]/6,{12}7,,2,6<8[8:1],,,4,,,
{4}5/7h[4:1],{12}1,,8,2-5[8:1],,,6,,,
{4}4h[4:1]/7,{12}6,,3,5-8[8:1],,,4,,,
{4}1h[4:1]/7,{12}6,,2,8<5[8:1],,,1,,,
{4}4h[4:1]/2,{12}1,,6,2>5[8:1],,,8,,,
3h[6:1]/6h[6:1],,,
E
