&title=Hall of Mirrors
&artist=sta
&first=0
&des=Dororo
&lv_6=13+
&inote_6=(147)
{1},
{16}
3h[1:1],,,,,,,,,,,,,,,,
6h[1:1],,,,,,,,,,,,,,,,
5h[1:1],,,,,,,,,,,,,,,,
4q5[2:1],,,,,,,,,,,,,,,,
4/5,,,3/4,,,2/4,,3h[8:1],,4,,5h[8:1],,4,,3/5,,,4/6,,,5/7,,6h[8:1],,5,,4h[8:1],,5,,
6,,5,,6,,2,,6,,4,,6,,8,,6h[8:1],,7h[8:1],,8h[8:1],,1h[8:1],,2h[8:1],,3h[8:1],,
4w8[12:1],,,,4b,,,,2/6,,5,,1/4,,2,,3p7[8:1]/6v4[8:1],,,,3/6,,,,
1/5,,7,,4/8,,2,,6<1[8:1]/1v4[8:1],,,,6/1,,,,2/5,,8,,6/4,,1,,
3pp4[8:1]/5<8[8:1],,,,3/5,,,,1/2,,3,,7<4[8:1]/8>3[8:1],,6/1,,,,,,
2/6,,3,4,,4,1,,1h[8:1],,5,,2h[8:1],,8,,37,,6,5,,5,8,,8h[8:1],,3,,7h[8:1],,1,,
6/8,,7,,1/3,,2,,5/7,,6,,2/4,,3,,
7-4[8:1],,7,,2-5[8:1],,2,,8v1[8:1],,8,,,,,,
{8}
4,,4,,4,,4,5,4,,4,,4,5,4,,5,,5,,5,,5,4,5,,5,,5,4,4/5,,3,,3-5[8:1],,3h[8:1],,3,,
3/5,,2/4,,3/1,,2/8,,1>5[4:1],,7,,1<5[4:1],,3,,1-5[4:1],,6,,8,8,1/7,,
5,,5/2-4[16:3],,5,,5,,6/4qq8[2:1],,6,,6,,6,,2/8,,8-5[4:1]/2,,2,,2,,3/5pp8[2:1],,3,,
3,,3,,4/8<5[16:3],,4>1[16:3],,4,,4,,4/1V37[2:1],,4,,4,,5,,
8-3[4:1],,7,,6-1[4:1],,5,,4-7[4:1],,3,,1,1,2/8-4[16:3],,
8h[8:3],,,3>8[4:1],,8<5[4:1],,5>2[4:1],,8,,6,6,,3-8[8:1]/5,,3h[8:3],,,
8>3[4:1],,3<6[4:1],,6V84[8:4]*<4[8:4],,,,,,,1/5,,
3/4h[4:1],,2,2h[4:1],,5,5,3,{16}3h[16:3]/4,,,4h[16:3],,,5,,5-3[8:1],,,,6,,,,
5h[4:1]/6,,,,7,,7h[4:1],,,,5,,5,,6,,6h[16:3],,,5h[16:3],,,4,,4-8[8:1],,,,
2,,,,2h[8:1]/1h[8:1],,,,2h[8:1]/4h[8:1],,,,3,,3,,42,,5,,3h[8:1]/6h[8:1],,,,
7h[8:1]/5h[8:1],,,,6,,6,,7/5,,4,,3h[8:1]/5h[8:1],,,,1h[8:1]/4h[8:1],,,,
2,,4,,3/5,,6,,7h[8:1]/3h[8:1],,,,8h[8:1]/5h[8:1],,,,7<4[8:1]/4,,,,
7/2-6[8:1],,,,2/5>6[8:4],,,,1,,1,,,,4,,4,,5,,6/4,,,8/6,,,8/2,,3>8[8:1],,,,
3/6>3[8:1],,,,6/1pp5[2:1],,,,5,,5,,,,7,,7,,4,,3/5,,2/4,,3/1,,2/8,,
1$/7$/5?-1[12:1]/4?-7[12:1],,,,4b/5b,,,,2/5,,3,4,2,,1/7,,6h[8:1],,8,,4h[8:1],,
8<5[8:1],,5pp4[4:1],,,3,,,1,,1,,2,,36,,4,,7/5,,6,5,7,,2/8,,3h[8:1],,1,,5h[8:1],,
1<6[8:1],,6q3[4:1],,,5,,,4,,4,,5,,3/6,,7,,4/8,,2,6,4,,2/8,,1-5[8:1],,1,,
8,,8,,4,,7,3,5,,7/1,,8-4[8:1],,8,,2,,2,,
1V75[16:3]/2V86[16:3],,,5V31[16:3]/6V42[16:3],,,,,,,,,7/8,,6/1,,
5<1[16:3],,,1V73[16:5],,,2-6[8:1],,2,,,,,,4/5,,2b/7b,,
3,5,4,,28,,7<4[8:1],,7,,3,,3,,64,,,8/6,,,2/8,,3>8[8:1],,4,,3/5,,6,,
1/7,,5,4,6,,1/7,,2>5[8:1],,2,,7,,7,,8/6,,,2/8,,,2/4,,5-1[8:1],,6,,
8<5[12:1]/5,,,,8,,2,4,,4,1,,8v3[8:1],,8,,7,,7,,6/5,,7,5,,5,8,,
1v6[8:1],,1,,4,,5,,8V64[16:3]/7V53[16:3],,,4V28[16:3]/3V17[16:3],,,,,,,,,
5/6,,4/7,,3>8[16:3],,,8V26[16:5],,,5-1[8:1],,5,,,,,,,,
{24}7,6,5,2,3,4,8,7,6,1,2,3,{16}5h[8:1]/4h[8:1],,,7h[8:1]/5h[8:1],,,86,,
{24}1,2,3,8,7,6,2,3,4,7,6,5,2,3,4,5,6,7,2,3,4,5,6,7,
{16}
1-6[8:1]/8,,,,2/1-4[8:1],,,,1/8,,,,5<8[8:1],,,,4-2[8:1]/5-2[8:1],,,,
4-7[8:1]/5-7[8:1],,,,4-8[8:1]/5-1[8:1],,,,4/5,,,,
{24}2,3,4,7,6,5,1,2,3,8,7,6,{16}
5h[8:1]/4h[8:1],,,4h[16:2]/2h[8:1],,,1/3,,2<7[8:1],,5,,7pp2[8:3],,,,
,,,,6,,6,,8-4[8:1]/1h[8:1],,,,7h[8:1]/8,,,,8-4[8:1]/2h[8:1],,,,8/6h[8:1],,,,
8-4[8:1]/3h[8:1],,,,8/5h[8:1],,,,5<8[8:1]/4>1[8:1],,2/7,,5b/4b,,,,
{24}
2,3,4,7,6,5,1,2,3,7,8,1,2q6[8:1],3,4,5,6,7,8,,,,,,
8,7,6,1,2,3,7,6,5,2,1,8,7p3[8:1],6,5,4,3,2,1,,,,,,
1,2,3,8,7,6,2,3,4,7,6,5,1q5[8:1],2,3,8,7,6,1,,,,,,
8,7,6,1,2,3,7,6,5,1,2,3,6,7,8,1,2,3,6-2[8:1],7,8,1,2,3,
{16},,,,{12}6h[12:1],5h[12:1],4h[12:1],3,,2,2h[12:1],4h[12:1],5h[12:1],7,,
8,{24}8,7,6,1/5,2,3,4/8,7,6,5,4,3,{16}2/7,,1/8,,6/8,,,5/6,,,
3/4z8[4:1],,2/5s1[8:1],,,,,,,,{6}7/3,1/5,4/8,
{8}2-6[8:1]/6-2[8:1],,6>3[1:6]/2<7[8:1],,2b,,
&lv_6=12+
&inote_6=(147)
{16}
,,,,,,,,,,,,,,,,
1-5[4:5],,,,,,,,,,,,,,,,
,,,,,,,,,,,,,,,,
5-1[4:5],,,,,,,,,,,,,,,,
,,,,,,,,,,,,,,,,
1-5[4:5],,,,,,,,,,,,,,,,
1h[4:3],,,,,,,,,,,,,,,,
5-1[4:5],,,,3,,,,3,,,,3,,,,
5b,,,,7,,,,7,,,,7,,,,
4-1[2:1]/1h[4:1],,,,,,,,2,,2,,3,,,,
1-4[2:1]/4h[4:1],,,,,,,,3,,3,,2,,,,
6-2[2:1]/2h[4:1],,,,,,,,3,,3,,4,,,,
2-6[2:1]/6h[4:1],,,,,,,,5,,5,,4,,4,,
5-8[2:1]/8h[4:1],,,,,,,,7,,7,,6,,,,
8-5[2:1]/5h[4:1],,,,,,,,6,,6,,7,,,,
3-7[2:1]/7h[4:1],,,,,,,,6,,6,,5,,,,
7-3[2:1]/3h[4:1],,,,,,,,4,,4,,5,,5,,
4b-8[4:5],,,,7-2[8:1],,,,,,,,2-7[8:1],,,,
,,,,6-3[8:1],,,,,,,,3-6[8:1],,,,
8b-4[4:5],,,,2-5[8:1],,,,,,,,5-2[8:1],,,,
,,,,1-6[8:1],,,,,,,,6-1[8:1],,,,
4b-8[4:5],,,,1^4[8:1],,,,,,,,4^1[8:1],,,,
,,,,7^4[8:1],,,,,,,,4^7[8:1],,,,
8b-4[4:5],,,,6,,5,,6,,7,,6,,,,
8b,,,,2h[256:1],,3h[256:1],,2h[256:1],,1h[256:1],,2h[256:1],,,,
5b-1[4:5],,,,2-7[8:1],,,,,,,,7-2[8:1],,,,
,,,,3-6[8:1],,,,,,,,6-3[8:1],,,,
1b-5[2:3],,,,7-4[8:1],,,,,,,,4-7[8:1],,,,
,,,,8-3[8:1],,,,,,,,3-8[8:1],,,,
5b-1[4:5],,,,8^5[8:1],,,,,,,,5^8[8:1],,,,
,,,,2^5[8:1],,,,,,,,5^2[8:1],,,,
1b-5[4:5],,,,3,,2,,3,,4,,3,,,,
1h[256:1],,,,7b,,8b,,7b,,6b,,7b-3[2:3]/4-1[8:1],,,,
4b,,,,2h[8:1],,,,1h[8:1],,,,8h[8:1],,,,
1h[8:1],,,,2h[8:1],,,,1h[8:1],,,,3b-7[2:3]/1-4[8:1],,,,
1b,,,,4h[8:1],,,,5h[8:1],,,,6h[8:1],,,,
5h[8:1],,,,4h[8:1],,,,5h[8:1],,,,5-1[8:1],,,,
7^4[8:1],,8,,1h[4:1],,,,6^3[8:1],,7,,8h[4:1],,,,
5^2[8:1],,6,,7h[4:1],,,,4^1[8:1],,5,,6-2[8:1],,,,
7^4[8:1],,8,,1h[4:1],,,,6^3[8:1],,7,,8h[4:1],,,,
5^2[8:1],,6,,8^5[8:1],,1,,3,,4,,5-8[8:1]/2b-6[2:3],,,,
5b,,,,7,,7,,8,,8,,1,,1,,
8,,8,,7,,7,,8,,8,,8-5[8:1]/6b-2[2:3],,,,
8b,,,,5,,5,,4,,4,,3,,3,,
4,,4,,5,,5,,4,,4,,4-8[8:1],,,,
2^5[8:1],,1,,8h[4:1],,,,3^6[8:1],,2,,1h[4:1],,,,
4^7[8:1],,3,,2h[4:1],,,,5^8[8:1],,4,,3-7[8:1],,,,
2^5[8:1],,1,,8h[4:1],,,,3^6[8:1],,2,,1h[4:1],,,,
8,,17,,2-7[8:1]/6-3[8:1],,35,,,,,,1b/5b,,,,
5^8[2:3],,3,4,3,,2,,1,,4,,2,3,2,1,
2,,3,4,3,,2,,1-5[8:1],,,,,,,,
8^5[2:3],,2,1,2,,3,,4,,1,,2,3,2,3,
2,,2,1,2,,3,,4-8[8:1],,,,,,,,
1-4[8:1],,8,,7-2[8:1],,6,,8-5[8:1],,1,,6-3[8:1],,7,,
1h[8:1],,,2h[8:1]/8h[8:1],,,3h[4:1]/7h[4:1],,,,,,3-7[8:1]/7,,,,
3^8[16:3],,,8^5[16:3],,,5^2[16:3],,,,8h[4:1],,,,,,
8-4[8:1],,,48,,,2,,2-5[8:1]/6-1[8:1],,,,2b/6b,,,,
4^1[2:3],,6h[256:1],5h[256:1],6h[256:1],,7h[256:1],,8h[256:1],,5h[256:1],,7h[256:1],6h[256:1],7h[256:1],8h[256:1],
7h[256:1],,6h[256:1],5h[256:1],6h[256:1],,7h[256:1],,8-4[8:1],,,,,,,,
1^4[2:3],,7h[256:1],8h[256:1],7h[256:1],,6h[256:1],,5h[256:1],,8h[256:1],,7h[256:1],6h[256:1],7h[256:1],6h[256:1],
7h[256:1],,7h[256:1],8h[256:1],7h[256:1],,6h[256:1],,5-1[8:1],,,,,,,,
8-5[8:1],,1,,2-7[8:1],,3,,1-4[8:1],,8,,3-6[8:1],,2,,
8h[8:1],,,7h[8:1]/1h[8:1],,,6h[4:1]/2h[4:1],,,,,,6-2[8:1]/2,,,,
6^1[16:3],,,1^4[16:3],,,4^7[16:3],,,,1h[4:1],,,,,,
15,,,26,,,37,,{24}4-7[8:1]/8-3[8:1],37,26,{16}15,,4b/8b,,,,
{24}3,4,5,4,5,6,3,4,5,4,5,6,{16}3h[8:1],,,3h[8:1],,,3,,
{24}7,6,5,1,2,3,8,7,6,2,3,4,7,6,5,1,2,3,6,5,4,8,1,2,
{16}
5h[16:3]/3h[8:1],,,,5h[16:3]/1h[8:1],,,,5h[16:3]/4h[8:1],,,,5h[16:3]/2h[8:1],,,,
5h[16:3]/8h[8:1],,,,5h[16:3]/6h[8:1],,,,5h[16:3]/1h[8:1],,,,5h[16:3]/3h[8:1],,,,
{24}6,5,4,5,4,3,6,5,4,5,4,3,{16}6h[8:1],,,6h[8:1],,,6,,
3h[8:1]/7h[8:1],,,4h[8:1]/8h[8:1],,,15,,6^3[8:1]/2^7[8:1],,,,,,,,
4h[16:3]/6h[8:1],,,,4h[16:3]/8h[8:1],,,,4h[16:3]/5h[8:1],,,,4h[16:3]/7h[8:1],,,,
4h[16:3]/1h[8:1],,,,4h[16:3]/3h[8:1],,,,4h[16:3]/8h[8:1],,,,4h[16:3]/6h[8:1],,,,
{24}5-1[8:1],6,7,{16}8,,{24}8-4[8:1]/5,7,6,{16}5,,,,,,{32}5,6,7,8,1,2,3,4,
{24}1-6[8:1],2,3,{16}4,,{24}5-8[8:1]/1,4,3,{16}2,,,,,,{32}8,1,2,3,4,5,6,7,
{24}4-8[8:1],3,2,{16}1,,{24}1-5[8:1]/4,2,3,{16}4,,,,,,{32}4,3,2,1,8,7,6,5,
{24}8,7,6,2,3,4,1,8,7,3,4,5,{16}1-5[8:1],,,,,,,,
{12}3,3,4,5,5,6,7h[6:1],,5,5,4,4,
6,6,5,4,4,3,{32}2-6[8:1],1,8,7,6,5,4,3,2b/6b,,,,,,,,
{16}1h[8:1]/5h[8:1],,,4h[8:1]/8h[8:1],,,3h[4:1]/7h[4:1],,,,,,{12},1^4[4:1],,
3^6[4:1],,5^8[4:1],,7^2[4:1],,1-5[1:6],,,,,,
{16}
5b,,,,,,,,,,,,,,,,
,,,,,,,,,,,,,,,,
,,,,,,,,,,,,,,,,
,,,,,,,,,,,,,,,,
,,,,,,,,,,,,,,,,
,,,,,,,,,,,,,,,,
,,,,,,,,,,,,,,,,
,,,,,,,,,,,,,,,,
E
