&title=リリーゼと炎龍レーヴァテイン
&artist=黒猫ダンジョン
&first=1.02
&des=Kurage
&lv_5=14
&inote_5=(200){16}3,5,4,5,4,,7,5,6,5,6,,4,8,4,8,
{8}
3h[4:1],,1,1h[4:1]/2,,3,8,48,
5h[4:1],,6,5/7h[4:1],,4,48,,
6,6,7/5h[4:1],,8,84,,{16}2,1,
{8}
2-4[32:3],5,2,6,56,7-5[32:3],4,7,
2,24,1>4[8:1],5,1,7,57,8<5[8:1],
4,8,3,34,2-6[8:1],6,2,8,
8,17,7,26,2,35,35,35,
{12}
2b-6[8:1]/6b,,2,7-4[8:1],,,2-6[8:1],,2,8-4[8:1],,,
2-6[8:1],,2,1-4[8:1],,,5-2[8:1]*-8[8:1],,,,,,
7b-3[8:1]/3b,,7,2-5[8:1],,,7-3[8:1],,7,1-5[8:1],,,
7-3[8:1],,7,8-5[8:1],,,4-7[8:1]*-1[8:1],,,,,,
2b>5[8:1]/6b,,2,7p3[8:1],,,2>5[8:1],,2,8p4[8:1],,,
2>5[8:1],,2,1p5[8:1],,,4-2[8:1]*-8[8:1],,,,,,
7b<4[8:1]/3b,,7,2q6[8:1],,,7<4[8:1],,7,1q5[8:1],,,
7<4[8:1],,7,8h[4:1],,,{12}3,2,1,8,7,6,
2b/5b,3,4,7,6,5,3,4,2,7,5,6,
8,1,2,7,8,1,6,7,8,15,,,
7b/4b,6,5,2,3,4,6,5,7,2,4,3,
1,8,7,2,1,8,3,2,1,84,,,
1b/5b,2,3,6,7,8,2,1,3,6,5,7,
4,3,2,5,4,3,6,5,4,37,,,
8b/4b,7,6,3,2,1,7,8,6,3,4,2,
5,6,7,4,5,6,3h[12:1],4h[12:1],5h[12:1],2h[12:1],3h[12:1],4h[12:1],
{8}
6,6,57,8,4,4,53,2,8,8,71,6,2,2,31,4,
65,6,34,3,57,6,24,3,85,6,14,3,54,54,36,8bV26b[4:1]*z4b[4:1]/1b,,{16},,,,,,
{8}
5-7[32:3]/3,3,2V48[4:1],,8-2[32:3],7h[8:2],,,
6<2[32:7],,4,4qq5[32:11],,,8,,
6-8[32:3],6,3V51[4:1],,1-4[8:1],8h[8:2],,,
5h[8:1]/7h[8:1],,34,3h[8:1],{16}8,7,6,5,8,1,2,3,
{8}
4-2[32:3]/6,6,7V51[4:1],,1-7[32:3],2h[8:2],,,
3>7[32:7],,5,5pp4[32:11],,,1,,
3-1[32:3],3,6V48[4:1],,8-5[8:1],1h[8:2],,,
4h[8:1]/2h[8:1],,65,6h[8:1],{16}1,2,3,4,1,8,7,6,
{8}45,3,24,7,65,4,53,26,
7-5[32:3],7,1-3[32:3],1,8-4[8:1],8,2,2,
15,3,3h[8:1]/4,7h[8:1],{16}5,6,{8}5,48,7,
56,2,34,5,64,37,{16}37,,{8},
{8}54,6,75,2,34,5,46,73,
2-4[32:3],2,8-6[32:3],8,1-5[8:1],1,7,7,
84,6,6h[8:1]/5,2h[8:1],{16}4,3,{8}4,51,2,
43,7,65,4,35,26,{16}26,,{8},
8b>3[8:1]/1,7,6,5b<8[8:1],4,3,2bq6[32:5],1,
8,7bp3[32:5],8,1,1w5[8:1],,,,
3/7b>2b[8:1],6,5,4b<7b[8:1],3,2,1bq5b[32:5],8,
7,6b-2b[32:5],4,3,3p7b[8:1]*q7b[8:1],,,,
1b<6[8:1]/8,2,3,4b>1[8:1],5,6,7bp3[32:5],8,
1,2bq6[32:5],1,8,8w4[8:1],,,,
6/2b<7b[8:1],3,4,5b>2b[8:1],6,7,8bp4b[32:5],1,
2,3b-7b[32:5],5,6,6<1b[8:1]*>3b[8:1],,,,
{16}84,,6,5,6,,2,4,2,,6,5,7,,2,1,
3-5[32:3],,3,,8-6[32:3],,8,,4-1[8:1],,4,,5h[4:1],,,,
8,6,8,6,1,5,1,5,2,4,2,4,3,,6,5,
7,,2,1,3,8,4,,4-2[8:1]/8-6[8:1],,7,,,,,,
{16}15,,3,4,3,,7,5,7,,3,4,2,,7,8,
6-4[32:3],,6,,2-6[8:1],,2,,5<8[8:1],,5,,4h[4:1],,,,
1,3,1,3,8,4,8,4,7,5,7,5,6,,3,4,
2,,7,8,6,1,5,,6<1[8:1]/2>5[8:1],,1,,,,,,
{12}4b/8b,7,6,2,3,4,6b,5,7,3,4,3,7,8,7,2,1,2,4b,2,6b,2,8b,2,6b,7,8,2,3,4,6,5,6,3,4,2,6b,7,8,2b,3,4,7b,8,1,3,4,5,8b,7,6,4b,3,2,7b,6,5,3,2,1,6,7,8,1,2,3,6b,5,7,3,4,3,6,5,6,3b,4,2,6,4,8,3,5,1,
{8}
8bpp1b[16:3],,87,7>5b[8:2],,6,6p2b[32:5],,
4>6b[8:2],,1,,5<3b[8:2],,8,,
4bqq4b[4:1],,45,5<2b[16:3]*q3b[16:3],,,,,
{16}54,,6,5,6,,78,,52,,3h[8:1],,1,8,7,6,
{8}4/5bpp6[16:3],,51,1pp1[8:2],,7,7-3[8:1],,
8<2[8:2],,4,,1>7[8:2],,5,,8b,8,17,26,{16}3,4,3,,{8}4b/5b,6,7b/3b,{16}8,1,8,,12,,{32}8w4[8:1],7,6,5,4,3,2,1,{4}8,
{8}1bqq8b[16:3],,12,2<4[8:2],,3,3q7b[32:5],,
5<3[8:2],,8,,4>6b[8:2],,1,,
5pp5[4:1],,54,4>7b[16:3]*p6b[16:3],,,,,
{16}45,,3,4,3,,21,,47,,6h[8:1],,8,1,2,3,
{8}5/4bqq3b[16:3],,48,8qq8[8:2],,2,2-6b[8:1],,
1>7[8:2],,5,,8w4b[8:1],,8b,,
62,53,,84,65,,72,54,,63,63,,1b/2b,6b/5b,,,
37,46,,15,34,,27,45,,36,36,,8b/7b,3b/4b,,,
2h[8:3]/6,,,4h[8:3],,,5h[8:3],,,7h[8:3],,,3,3,3,6,6,6,54,72,
