&title=Swan Song
&artist=void(Mournfinale)
&first=0.02
&des=c alter
&lv_5=14
&inote_5=(148)
{4},,
{8}5-1[8:1],,2b,,
{16}2,,3,4,,3,5,,{32}3,4,{16}5h[16:2],,6h[16:3],,,7>4[16:5],
,7h[8:2],,,,,,,,7,5,7,5,8,5,8,,
{32}7,6,{16}5h[32:10],,,,,{32}3,4,{32},,,,,,,,,,6,,,6,,,5,,
{4}7qq5[8:2],5>2[8:2],2,1h[8:2],
{16}3,,2,4,,3,5,,4,6,4,6,5/7,,86,,
{16}8,,7,5,,6,4,,5,3,5,3,24,,24,,
{32}2,3,{16}4h[16:2],,7h[16:3],,,5h[16:2],,6h[16:3],,,2h[16:3],,,4pp7[8:3],,,,,,,,{24},1,2,{16}3,,,,7,7,5,5,
{8}6>8[8:3],,4h[8:2],,,{16}3,3,8,8,2,2,
7h[8:2],,,1,1>5[8:2],,,,,,6,,,,7,7,
{16}4h[8:1],,3,4h[8:1],,5,4h[8:1],,2,4h[8:1],,5,4h[8:1],,1,4h[8:1],,5,4h[8:1],,
1,4,8,4,7,4,6,4,{16}6,6,2,2,
{16}8h[16:2],,2,2,{24}6,5,6,5,6,5,{16}7h[8:1],,5,6h[8:1],,4,5,,
{16}4,5,3,3,5,,6,5,7,7,8,,1,6,2,5,
{16}3,3,4,4,{24}3>5[8:3],4,3,4,3,4,{16}3h[8:2],,,,,,2,2,
{16}4h[8:1],,3,5h[8:1],,4,6,4,8h[8:1],,5,7h[8:1],,4,6,,
{4}5b>7[8:5]/3h[8:7],,,,
{4}3<5[8:1],3<6[32:6],3<7[32:6],3<2[8:5],
{4}3h[8:6],,,{8},{24}8,7,6,{8}5h[8:4],,,,1-5[12:1],,1b,,
{16}2b,4,3,,5,6,,6,2,4,3,,5,6,,6,
2,2,4,3,{24}6,5,6,{16},6,2,4,3,,6,5,6,5,
{16}7h[64:1],5,6,,4,3,,3,7,5,6,,4,3,,3,
7,7,5,6,{24}3,4,3,{16},3,7,5,6,,3,4,3,4,
{16}1b,4,3,,7,5,6,6,1,4,2,,7,5,6,6,
1,1,4,2,{24}6,5,6,5,6,,{16}2,4,3,,6,5,7,5,
{16}8,5,6,6,2,4,3,3,8,5,7,7,3,4,2,2,
{32}8,7,6,,,,2,3,4,,,,6,5,4,,
{32}2,3,4,5,6,7,8,1,2,3,4,5,6,7,8,1,
{8}2bV84[8:2]/6,6,5h[8:2],,,7,6V82[32:7],6,3>7[32:7],3,6V83[32:7],6,4>7[32:7],4,5,5,
{8}6qq2[8:3],6,6h[8:2],,,7,{16}3,4,3,,{8}2-5[8:1],1,8,7v5[8:1],8,1,{16}2,2,4,4,
{8}3,5V73[8:2],2,1h[8:2],,,24,3,
5>2[8:1],6,7,8<5[8:1],1,2,3>5[8:3],,3h[8:2],,,3,3,24,53,27,
{32}1,2,3,,,,7,6,5,,,,3,4,5,,
{32}7,,7,,5,,5,,7,6,5,4,3,2,1,8,
{8}7bV15[8:2]/3,,4h[8:2],,,2,3>7[32:7],3,6V82[32:7],,3>6[32:7],,5V72[32:7],,4,,
{8}3qq7[8:3],3,3h[8:2],,,2,{16}5,,6,,{8}7-4[8:1],8,1,2v4[8:1],1,8,{16}7,5,7,5,
{16}43,,5,,62,,5/1h[8:2],,6,,7,,6<1[8:1],,5,,4,,3>8[8:1],,4,,5,,6,,78,,16,,25,,
{16}3,6,2,7,1,8,1,8,2,7,3,6,{24}4,5,4,5,4,5,
{16}36,,2,8,4,5,,74,,6,4,,1-5[8:1]*>4[8:1],,,,
{8}1b>8[8:8],,,,,,,1h[8:4],,,,8,7,3,5h[8:2],,
{8}2,4,7,3h[8:2],,5h[8:2],,2h[8:2],,8,,6,{24}3,4,3,4,3,4,3,4,3,4,3,4,
{8}1b,{16}4,4,{8}6,7h[8:2],,5h[8:2],,3h[8:2],,5,,5,6,2,35,6,
{8}7,{16}5,5,{8}3,2h[8:2],,4h[8:2],,6h[8:2],,5,6,71,3,28,{16}2-5[12:1],1,2,1,
{16}2b,,6,,5-2[12:1],6,,6,5,,6,,1-4[12:1],5,,5,
1,,6,,3-8[12:1],6,,6,3,,6,,7-4[12:1],8,7,8,
{16}7b,,3,,4-7[12:1],3,,3,4,,3,,8-5[12:1],4,,4,
8,,3,,6-1[12:1],3,,3,6,,3,,2>5[12:1],1,2,1,
{16}2b,,6,,5-2[12:1],6,5,6,5,,6,,1v4[12:1],5,1,5,
1,,6,,3>8[12:1],6,3,6,3,,6,,7-4[12:1],8,7,8,
{16}7b,,3,,3,3,4,4,2,6,4,7,3,5,1,28,
{16},,3h[64:1],,5h[64:1],,7h[64:1],,
{16}1,1,6,6,{24}2,4,3,6,5,7,
{16}1,2h[8:1],,7,6h[8:1],,1,2h[8:1],,6,5h[8:1],,{24}2,3,4,7,6,5,
{16}1h[8:1],,6,24,,3,65,,7,7,5,5,8,8,3,3,
{32}8w4[8:1],7,6,5,4,3,2,1,8b,,,,,,,,
{16}7,7,4,4,{24}6,5,6,3,4,3,
{16}8,7h[16:3],,,2,2h[8:1],,6,4,8,3,7,{32}8/1-5[8:1],2,3,4,{16}5h[8:1],,
{8}1b,3,8-4[8:1]/2,1,87,6,{24}2,3,4,8,7,6,
{16}2h[8:1],,5,4h[8:1],,6,5,,74,5,6,4,25,3,4,1,
{8}2>5[12:1],2,2/8-4[12:1],8,8/1-5[12:1],1,17,7,
{16}5,5,8,8,3,3,6,6,{16}2,1,5,7,{32}2,3,4,5,6,7,8,1,
{16}2b-5[12:1],8,3,4,2,,7-4[12:1],8,6,4,7,,{24}1,2,3,7,6,5,
{16}2,4,1,8,5,7,3,4,6,7,1,8,2,4,3,3,
{16}7v4[12:1],4,5,1,7,,2v4[12:1],5,3,7,2,,{24}6,5,6,3,4,3,
{16}7,5,8,1,4,2,6,5,3,2,8,1,7,5,6,6,
{16}3-8[12:1],5,2,1,3,,6-1[12:1],5,7,1,6,,{24}2,3,4,8,7,6,
{16}2,1,4,5,8,7,4,5,3,4,2,2,6,5,7,7,
{16}6v1[8:1],1,8,4,6,,3v1[8:1],8,2,6,3,,{24}6,8,6,3,1,3,
{16}8,17,,2,13,,35,35,{8}3/5-1[8:1],,2b,,
{16}2,,3,4,,3,5,,{32}3,4,{16}5h[16:2],,7h[16:3],,,5,,
{24}5,6,5,6,5,6,5,6,5,6,5,6,{16}4,7,2,5,1,8,1,6,
{32}2,3,{16}4h[32:10],,,,,{32}6,5,{32},,,,,,,,,,3,,,3,,,4,,
{32}1,2,3h[16:3],,,,,,5,6,7h[16:3],,,,,,1,2,3,4h[32:5],,,,,8b,,,,,,,,
{16}1,6,5,6,2,6,5,6,2,1,4,5,2,3,1,1,
{16}6,3,8,3,5,3,7,3,5,3,4,3,8,2,6,6,
{32}1,2,{16}3,7,5,,5,4h[8:1],,{32}1,8,{16}7,4,6,,6,8,,
1,1,7,7,3,3,{24}8,7,6,{16}5h[8:2]/4,,3,,1-5[8:1],1,7,7,
{8}1b>6[16:5],{16},1,1h[8:2],,,,,,{16}1,1,7,7,3,3,
5h[16:3],,,{24}4,5,4V28[8:2],{16},,,5,,6,,7,,6,6,
{16}5h[8:1],6,6,5h[8:1],4,4,5h[8:1],7,7,5h[8:1],3,3,5h[8:1],8,8,5h[8:1],4,4,5h[8:1],1,
1,4,8,3,7,2,6,1,{24}7,6,5,1,2,3,
{16}8h[16:2],,2,2,{24}5,4,5,4,5,4,{16}36,,3,24,,5,64,,
{16}3-8[12:1],5,2,1,3,,6-1[12:1],1,4,3,6,,2,8,4,4,
{16}6,5,7,4,{24}6<4[16:5],5,6,5,6,5,{16}6h[8:2],,,,,,7,7,
{16}4h[8:1],,6,3h[8:1],,{24}4,3,4,{16}3,1h[8:1],,2,8h[8:1],,{24}1,8,1,{16}8,
{16}2-5[8:1]/7-4[8:1],,{24}1,8,1,{16}2b/7b,,,,1,5,3,8,4,6,2,7,
{24}1,2,3,7,6,5,2,3,4,8,7,6,
3,4,3,7,5,7,2,3,2,7,8,7,
{24}1,1,1,{16},28,{32}2b/8b,37,46,5,{16},,3,1,4,5,1,7,5,6,
{16}17,,6,75,,3,3,4,{24}2,1,3,5,8,7,{32}2,3,4,5,6,7,8,1,
{16}2bz6[16:20]/6b,,,,,,,,{24}2,1,2,1,2,1,2,1,2,1,2,1,2-6[8:2]*-6[8:2],
