&title=Koko Soko
&artist=Smile. DK
&first=0.02
&des=柠檬红茶
&clock_count=4
&lv_5=13
&inote_5=(140)
{1}
,Chf[1:1],,,
{8}
7/8,7/8,,,1/2,1/2,,3,
{8}
6,6,4,5-7[12:1]*-7[12:1],5-1[12:1]b,,,,
{16}
1/7,,8,8,
{8}
8,1,2/6,3,4h[8:3]/7,8,,7,6<3[4:1],7h[8:3],6,,,,
{16}
8/2,,1,1,
{8}
1,8,3/7,6,2/5h[8:3],1,,2,3,4h[8:3],,E8/B8,E8/B8,,
{16}
1/7,,8,8,
{8}
8,1,2/6,3,4h[8:3]/7,8,,7,6>1[4:1],7h[8:3],6,,,,
{16}
8/2,,1,1,
{8}
1,8,3/7,6,2/5h[8:3],1,,2,3,4h[4:1],,C,,
{8}
3,7/5,6,5/4,3,4/2,,
{8}
2/4,3,4/5,6,5/7,6,7<4[12:1]/8>3[12:1],,,,
{8}
6h[8:1],4,6h[8:1],3,6h[8:1],2,7h[8:1],1,
{4}
1-3[12:1]/8-6[12:1],1-5[12:1]/8-4[12:1],1/8,B3/B6,
{8}
7v4[12:1],7,8>3[12:1],8,6<1[12:1],6,5v2[12:1],5,
{8}
7>2[6:1]v4[6:1],7,4,4,3h[8:3],,,
{8}
6,2/5,3,4/7,6,2/4,3,5/7,6,
{8}
2-5[12:1],2,1-6[12:1],1,4w8[12:1]b,,,,
{8}
7x-4[12:1],3v8[12:1],7x,3,5x<1[8:1],1>5[8:1],5x,,
{8}
8x>3[8:1]v5[8:1],8,5xpp5[4:1]b*qq5[4:1]b,5,,,,,
{8}
7x-4[12:1],3v8[12:1],7x>6[4:1],3,7x,,,
{8}
1-6[8:1],6x-3[8:1],3-8[8:1],8x-5[8:1],
{8}
5-2[8:1],6x,7bx,7b,,
{8}
2xv5[12:1],6-1[12:1],2x<3[4:1],6,2x,,,
{8}
2z6[4:1]/7s3[4:1],3/6,2/7,,,4-1[12:1]/5-8[12:1],,4/5,,
{8}
2xv5[12:1],6-1[12:1],2x<3[4:1],6,2x,,,
{8}
2V48[6:1],2x,7V51[6:1],7x,3V14[6:1]*pp4[6:1],3x,,,,
{16}
1-7[12:1]/5,,5,,1-3[12:1]/5,,5,,1-7[12:1]/5,,5,,1-3[12:1]/5,,5,,
{16}
1-7[12:1]/5,,5,,1>4[8:1]/5<8[8:1]b,,5,,1/5,,,,3x/7x,,3x/7x,,
{8}
4/6,8,3/5,1,5/6,7,3/4,2,4/6,5,3/5,4,4/5,
{8}
B7/E8/B3/E4,E6/B5/B1/E2,,
{16}
8-2[12:1]/4,,4,,8-6[12:1]/4,,4,,8-2[12:1]/4,,4,,8-6[12:1]/4,,4,,
{16}
8-2[12:1]/4,,4,,8<5[8:1]/4>1[8:1]b,,4,,8/4,,,,2b/6b,,2b/6b,,
{8}
5/3,1,6/4,8,4/3,2,6/5,7,5/3,4,6/4,5,5-3[12:1]/4-6[12:1],4/5,
{8}
4/5<4[4:15],,2,2,3,2h[8:11],
{2}
,,,
{8}
7,7,6,7,6,5,5h[1:1],,
{1}
,
{4}
6h[8:1]/3,4h[8:1]/5,7h[8:1]/3,5h[8:1]/6,
{4}
2h[8:1]/6,4h[8:1]/3,8h[8:1]/2,7h[8:1]/3,
{4}
3h[8:1]/5h[8:1],A7/E7/A8/E1,6h[8:1]/4h[8:1],A2/E3/A1/E1,
{8}
5x/6x,1x/8x,3x/4x,1x/8x,4xz8[8:1]b/5xs1[8:1]b,4x/5x,,,
{8}
7-4[12:1],3v8[12:1],7,3/Cf,5<1[8:1],1>5[8:1],5,,
{8}
8>3[8:1]v5[8:1],8,5pp5[4:1]qq4[16:3]b,6,6h[4:1],,,,
{8}
8-5[12:1],4v1[12:1],8p6[4:1],4,8,3,3,
{8}
8-5[8:1],5-2[8:1],2-7[8:1],7-4[8:1],
{8}
4-1[8:1],3,2bx,2b,,
{8}
2v5[12:1],6-1[12:1],2q4[4:1]/Cf,6,2,6,6-8[12:1],
{8}
6-3[12:1],,,4w8[8:1]b,6/2,4,,6/2,7,
{8}
2v5[12:1],6-1[12:1],2q3[16:3],6,2,5,5,
{8}
3V15[6:1],3,6V84[6:1],6,3V14[6:1]*pp4[6:1],3,,,,
{64}
1x/5,D1,A8,D8,A7,,,,5,,,,,,,,1x/5,D2,A2,D3,A3,,,,5,,,,,,,,
{64}
1x/5,D1,A8,D8,A7,,,,5,,,,,,,,1x/5,D2,A2,D3,A3,,,,5,,,,,,,,
{64}
1x/5,D1,A8,D8,A7,,,,6,,,,,,,,1x<1[4:1]/5,D2,A2,D3,A3,,,,4,,,,,,,,
{4}
1x/5h[4:1],,
{16}
4/6,,7,1,7,,2,,
{8}
4/3,2,6/5,7,5/3,4,6/4,5,5/4,
{8}
B7/E8/B3/E4,E6/B5/B1/E2,,
{64}
8x/4,D1,A1,D2,A2,,,,4,,,,,,,,8x/4,D8,A7,D7,A6,,,,4,,,,,,,,
{64}
8x/4,D1,A1,D2,A2,,,,4,,,,,,,,8x/4,D8,A7,D7,A6,,,,4,,,,,,,,
{64}
8x/4,D1,A1,D2,A2,,,,3,,,,,,,,8x>8[4:1]/4,D8,A7,D7,A6,,,,5,,,,,,,,
{4}
8x/4h[4:1],,
{16}
5/3,,2,8,2,,7,,
{8}
5/6,7,3/4,2,4/6,5,3/5,4,3-5[12:1]/6-4[12:1],3/6,,,
{16}
1/7,,8,8,
{8}
8,1,2,3,4h[4:1],7p3[8:1],,2q6[8:1]/7,2<5[4:1],2,,,,,
{16}
8/2,,1,1,
{8}
1,8,3/7,6,2/5h[8:3],1,,2,3,4h[8:3],,7b,7b,,
{16}
1/7,,8,8,
{8}
8,1,2,3,4h[4:1],7p3[8:1],,3q7[8:1]/7,1>6[16:3],2,,,,,
{16}
8/2,,1,1,
{8}
1,8,3/7,6,2/5h[8:3],1,,2,3,4,
{16}
5,4,5,4,5,4,5,4,
{8}
6h[1:2],,4,,,4,,3,,1,1,,2-4[12:1],,2,,
{8}
3h[2:3],,8,,,8,,7,,7,,7,6,
{24}
B4,B3,B2,E2f,
