&title=Our Wrenally[SD]
&artist=t+pazolite
&first=0
&des=Tachi.mia
&lv_5=14+
&inote_5=(105){1},
{8}4-8[1:2],,5,5,5,,6h[4:1],,
{16},3,5,5,2,2,6,6,2,3,6,5,
{24}3,2,1,5,6,7,
{4}4h[2:1],,
{4}8b,5,
{16}5-1[1:1],
5,4,4,7,7,3,3,6,7,3,2,
{24}6,7,8,4,3,2,
{4}5h[2:1],,1b,7,
{16}6-2[1:1],6,3,3,7,7,1,1,5,6,8,1,
{24}5,4,3,7,8,1,
{16}5,5,5,5,
{32}8,7,1,2,8,7,1,2,
{2}5h[2:1],
{32}4,,3,2,16,,7,,7,,2,1,38,,38,,4,,6,5,6,,1,2,3,,7,6,5,,8,,
{48}48,5,6,7,,,
{32}4,,,,8,2,8,3,84,37,26,15,8h[4:1],,,,5,,,,4w8[4:1],,,,6,,,,
{2}4,
{16}4,
{32}6,5,6,,3,4,3,,5,,5,,5,,
{32}2,1,8,1,8,7,8,7,6,7,6,5,4,1,2,3,4h[2:1],,8,,8,,7,,7,,6,,6,,5,,5,,2,1,2,,7,8,7,,3,,4,,5,,
{64}6,5,4,3,2,1,,,7,,,,7h[8:1],,,,
{16}2,3,4/6h[4:1],3,2,1,
{64}4,,3,,4,,,,7,,8,,6,,,,5,,,,4,,,,3,4,5,6,7,8,,,2,,,,
{16}2h[8:1],7,6,5/3h[8:1],6,7,7h[8:1],1,1h[8:1],8,8h[8:1],3,3h[8:1],6,6h[8:1],2,2,
{64}6,,,,6,7,8,,4,,,,4,3,2,,
{32}61,2,3,8,7,6,4,3,2,5,6,7,1,2,3,
{64}8,7,
{16}61,,2,3,4,,5,,
{4}4-8[2:1],5,6,6,2-6[2:1],1,8,8,1-5[2:1],7,6,6,
{8}3-7[4:1],,6,,6,,2,3,4,
{32}6,,,,4,5,3,,7,,7,,26,,,,2,,,,54,,,,3,,4,,56,,6,,6,,43,,3,,3,,71,,7,,7,,2,,3,,4,,5,,2,,2,,5,4,6,,3,4,2,,6,5,7,,2,3,1,,7,6,8,,5,4,3,,6,7,8,,2,,2,,1,,1h[4:1],,,,3-7[16:1],,3,,,,5,,5,,5h[8:1],,,,8,1,2,3,4,5,6,,,,35,,,,2,1,2,,3,4,3,,2,8,2,,3,5,3,,2,1,2,,3,4,3,,2,5,2,,8b,,,,6,5,6,,7,8,7,,6,4,6,,7,1,7,,6,5,6,,7,8,7,,6,1,6,,27,,38,,4,5,3,,8,1,7,,5,6,4,,1,8,2,,4,5,3,,7,8,6,,2,3,2,,5,4,5,,1,2,3,8,7,6,4,3,2,5,6,7,3,2,1,
{64}6,5,
{16}4-1[16:1]/8,,,,64,,5,,
{32}86,,3,4,3,,25,,17,,3,4,3,,25,,4,3,2,5,6,7,4,3,25,,,,8b,,,,43,,4,,56,,5,,12,,12,,8,7,6,15,8,7,6,15,8,7,6,51,,,,,45,,,,38,,6,5,6,,74,,82,,6,5,6,,74,,5,6,7,4,3,2,5,6,74,,,,18,,,,78,,7,,12,,2,,56,,56,,3,,4,,5,,63,,5,,4,,3,,,,1b/8b,,,,37,,5,6,4,,28,,37,,5,6,4,,37,,6,5,4,37,4,5,6,,37,,,,1b,,,,25,,3,,43,,6,,65,,1,8,1,,27,,27,,1,8,1,,27,,,,45,,45,,45,,36,,4,3,5,,71,,62,,4,3,5,,62,,3,4,5,62,5,4,3,,62,,,,37,,48,,15,,5,,6,,64,,3,,35,,4,,45,,1,2,3,4,8,7,6,5,1h[8:1],,,,,,,,15,,2,3,4,,15,,15,,87,,8,,8,,6,5,4,,1,2,38,,8,7,6,,15,,1,,24,,4,,1,8,2,,37,,37,,15,,15,,2,3,4,,8,7,63,,3,4,5,,1,8,73,,46,,3,2,1,,48,,48,,12,,2,,2,,1,8,7,,2,3,48,,8,7,6,,4>6[4:1],,4,,6h[4:1],,,,,,,,,,,,,,,,1q5[8:1]*p5[8:1],,,,,,,,,,,,,,,,
{4}2,3,6,5,8>4[2:1],7,
{8}7,6,6,,3,3,25,
{16},6,,6,6,,74,,,,1,1,8,8,2,2,7,7,2,3,6,5,3-7[16:1],,5h[8:1]/4,,
{32}3,,8,6,2,,35,,26,,8,7,1,,53,,2,3,4,5,62,5,4,3,26,,,,1b/7b,,6,,63,,2,,25,,7,,74,,3,,36,,15,,15,2,3,4,51,2,3,4,51,,,,37,,,,64,,1,3,7,,64,,73,,1,2,8,,46,,7,6,5,4,37,4,5,6,73,,,,8b/2b,,3,,36,,7,,74,,2,,25,,6,,63,,84,,84,,37,,46,,62,,35,,,,1b/8b,,,,26,,3,4,5,,17,,26,,5,4,3,,17,,2,3,6,5,2,3,6,5,48,,,,8,1,2,3,4,,,,17,,28,,17,,1,8,1,,36,,36,,1,8,1,,27,,,,54,,54,,54,,37,,6,5,4,,82,,73,,4,5,6,,82,,7,6,3,4,7,6,3,4,51,,,,48,,37,,26,,,,18,,18,,27,,1,8,1,,27,,27,,46,,53,,24,,1,,,,8,,,,74,,2,1,2,,5,4,5,,1,,8,,7,,
{64}6,7,8,1,2,3,,,74,,,,7h[8:1]/4,,,,
{16}3,2,3b/6h[4:1],4,5,4,
{32}2,1,3,,8,1,7,,1,,2,,
{64}3,2,1,8,7,6,,,25,,,,2h[8:1]/5,,,,
{16}6,7,6b/3h[8:1],5,5,5h[8:1],2,2h[8:1],7,7h[8:1],3,3h[8:1],8,8h[8:1],3,3,
{64}7,,,,7,6,5,,2,,,,2,3,4,,
{32}6,7,8,3,2,1,7,6,5,2,3,4,
{64}6,5,4,3,2,1,8,7,
{32}3b,,,,1,,,,7b,,,,5,,,,
{16}1h[16:28]/8h[6:1],,,,7h[6:1],,,,,6h[6:1],,,,,5h[16:14],,,,,,,,
E
