&title=雪は何色
&artist=Kotoha
&first=0
&des=ArraY
&lv_2=2
&lv_3=6
&lv_4=11
&lv_5=13+
&inote_2=(179){4},,,,,,,,,,,,,,,,,,,,{2}1,
1,
2,2,
3,3,
{1}4h[2:1],
8,
7,
6,
5,
4,
3,
2,
1h[2:1],
8-5[4:3],
,4-1[4:3],
,7-2[4:3],
,3-6[4:3],
,4h[1:1]/5h[1:1],
,5-8[4:3],
{2},4b,
5,5,
5,5,
6,6,
6,6,
7,7,
7,7,
8,8,
8,8,
{1}B1,
B2,
B3,
B4,
B5,
B6,
{2}1bx,1,
2b,2,
3,3,
3,3,
4,4,
4,4,
5,5,
5,5,
6,6,
6,6,
{1}Ch[1:2],
{2},,,,,,1,
1,
2,2,
3,3,
4,4,
5,5,
6,6,
7,7,
8,8,
{1}Cf,
E
&inote_3=(179){4},,,,,,,,,,,,,,,,,,,,1,
1,{2}1/2,
{4}3,3,{2}3/4,
{4}6,6,{2}5/6,
{1}7h[2:1]/8h[2:1],
{2}B1,B2,
B3,B4,
B5,B6,
B7,B8,
E2,E3,
E4,E5,
E6,E7,
E8,E1,
{1}1x-4[2:1],
5-8[2:1],
1>4[2:1],
5<8[2:1],
2>5[2:1],
7<4[2:1],
3>8[2:1],
6<1[2:1],
2p5[2:1],
7q4[2:1],
{2},,,4b/5b,
{4}3,3,{2}3/4,
{4}1,1,{2}1/2,
{4}6,6,7,7,
8,8,1,1,
2,2,{2}1/2,
{4}7,7,{2}7/8,
{4}3,3,{2}3/4,
{1}6h[2:1]/5h[2:1],
2-5[2:1],
7-4[2:1],
1>4[2:1],
8<5[2:1],
3q5[2:1],
6p4[2:1],
{4}1bx,1,2,2,
3b,3,4,4,
5,5,{2}4/5,
{4}1,1,{2}1/8,
{4}2,2,3,3,
4,4,5,5,
6,6,{2}6/5,
{4}3,3,{2}3/4,
{4}7,7,{2}7/8,
{1}1h[2:1]/2h[2:1],
{4}8,8,7,7,
6,6,5,5,
6b/5b,,,Ch[1:1],
,,,,2,
2,{2}1/2,
{4}3,3,{2}3/4,
{4}6,6,{2}5/6,
{1}7h[2:1]/8h[2:1],
{4}2,2,{2}1/2,
{4}6,6,{2}5/6,
{4}3,3,{2}3/4,
{1}7h[2:1]/8h[2:1],
1b/2b,
E
&inote_4=(179){4},{8},,,,,,2-5[8:3],
,,,,,,7-4[8:3],
,,,,,,,,1-6[8:3],
,,,,,,8-3[8:3],
,,,,,,,,2,
2-5[8:1],,7,,7-4[8:1],,1,
,1-5[8:1],,8,,8,,6,
7,8-4[8:1],,1,,1-5[8:1],,7,
,7p5[8:3],,1,,,,,{1}1h[1:1],
2h[1:1],
3h[1:1],
4h[1:1],
5h[1:1],
6h[1:1],
7h[1:1],
8h[2:1],
{4}2b/6b,{8}3,3h[4:1],,B7/E8/B8,,6h[4:1],
,B3/B4/E4,,7h[8:5],,1,2,3,
{4}4,{8}1,1-5[8:1],,8,,8qq4[8:3],
,1,,,,,{4}1h[4:1],
6,{8}2,2h[4:1],,B6/B5/E7,,7h[4:1],
,B4/B3/E3,,6h[4:1],,8,1,2,
{4}3qq4[2:1],{8}6,6,,7,{4}7,
5pp4[2:1],{8}3,3,,2,{4}2,
6h[4:1],{8}2,2h[4:1],,8,{4}8>4q6[4:3],
{8},,,,,,,,1,
1h[2:3],,B8,,B2,,B7,
,B3,,B6,,B4,,,8b/1bw5b[8:1],
,,,,7,7,6,
{4}6h[4:1],{8}3,3h[4:1],,7,6,5v8[8:1],
,,,,{2}1-5[8:1]/2-6[8:1],
8-4[8:1]/7-3[8:1],5-1[8:1]/6-2[8:1],
{8}7b/8bw4[8:1],,,,,7,7,6,
{4}6h[4:1],{8}2,2,,5,,5qq5[8:3]*pp5[8:3],
,,,,,,,2,
{4}2-5[8:1],{8}7,7-4[8:1],,1-5[8:1],,7,
,,,8/1,2,3,4,5,
,7,7,7h[4:1],,1h[4:1],,3h[4:1],
,,,1/8,7,6,5,4h[8:3],
,,2,2h[4:1],,8h[4:1],,6h[4:1],
,,,2/1,3,4,5,6-1[8:1],
,3,4,5h[4:1],,6,,5b-1[8:1]/6b-2[8:1],
,,,,{2}3b-7[8:1]/4b-8[8:1],
1b-5[8:1]/2b-6[8:1],8b-4[8:1]/7b-3[8:1],
{8}6b/5bw1b[8:1],,,,,4,3,2,
{4}1h[4:1],{8}7,7h[4:1],,2,3,4h[8:3],
,,,,{2}5-1[8:1]/6-2[8:1],
7-3[8:1]/8-4[8:1],1-5[8:1]/2-6[8:1],
{8}3b/4bw8[8:1],,,,,5,6,7,
{4}8h[4:1],{8}2,2h[4:1],,4h[4:1],,6h[8:5],
,,,,,,,2,
{4}2-5[8:1],{8}7,7-4[8:1],,1-5[8:1],,8h[8:3],
,,,,{2}1h[4:1]/7h[4:1],
2h[4:1]/6h[4:1],3h[4:1]/5h[4:1],
{4}4h[2:1],{8},,,,5,5,
6,6h[8:3],,,2,3,{4}4,
{8}2,2-5[8:1],,7,,7-4[8:1],,1,
,1-5[8:1],,8,,8,,6,
7,8-4[8:1],,2,,2-5[8:1],,7,
,7p5[8:3],,1,,,,,2,
2>5[8:1],,7,,7<4[8:1],,1,
,1q5[8:1],,8,,8,,6,
7,8p4[8:1],,2,,2>5[8:1],,7,
,7qq3[8:3],,1,,,,,{1}7bpp4[8:13]/2bqq5[8:13],
E
&inote_5=(179){4},{8},,,,,,8,
8h[4:1],,1h[4:1],,2h[4:1],,3h[4:1],
,4h[4:1],,5h[4:1],,6h[4:1],,2,
2,2h[4:1],,1h[4:1],,8h[4:1],,7h[4:1],
,6h[4:1],,5h[4:1],,1,{4}1b,
{8}8,8-4[8:1],,8/2-6[8:1],,2/7<4[8:1],,7/1q5[8:1],
,1/8<5[8:1],,8/2-6[8:1]*-4[8:1],,2,,7,
8,8-4[8:1],,8/1-5[8:1],,1/6-2[8:1],,6/3-5[8:1],
,3/1pp4[16:7]*qq6[16:7],,1,,,,,5h[1:2],
,,,,B1/A1,,A2/B2,
,,,,,,,,4h[1:2],
,,,,B8/A8,,A7/B7,
,,,,,,,,6h[1:2],
,,,,A4/B4,,B3/A3,
,,,,,,,,3h[8:7],
,,,,A5/B5,,A6/B6,
{16},,,,,,5,2,6,3,{8}7,8-5[8:1]*-3[8:1],8,
{4}8b,{8}6/2,7-4[8:1]/3-8[8:1],,7/3,,2-5[8:1]/6-1[8:1],
,2/6,,6h[4:1],,5,4,7,
{4}3/8,{8}1/2,1v6[8:1]/2>5[8:1],,1/2,,8pp3[8:3]/7p4[8:3],
,8/7,,,,,{4}4,
5/3,{8}6/2,7-4[8:1]/3-8[8:1],,7/3,,2-5[8:1]/6-1[8:1],
,2/6,,8h[4:1],,5,4,7/3,
{4}2v5[8:1],{8}6,6v1[8:1],,2,{4}2,
7v4[8:1],{8}3,3v8[8:1],,7,{4}7,
5s1[4:1],{8}4,4,,5,{4}5<5[4:3]*>5[4:3],
,,,,{1}5w1[4:3],
{16},,,,,,,,2,7,{8}2,{4}8/1>7[2:1],
{8}5bh[2:1],,,,,8<5[8:1],5>2[8:1],8,
{4}2,{8}7,7p6[4:1],,2,1,8>5[8:3],
,,{4}5<4[2:1],{16},,,,,,,,8x,
7,6,5,4,3,2,1,8/4x,5,6,7,8<2[2:1],1,2,3,
{8}4bxh[2:1],,,,,1-5[8:1],2-6[8:1],1,
{4}2,{8}4,4<8[4:1],,8>4[4:1],,4qq4b[8:3]*pp4b[8:3],
,,,,,,,5,
{4}5-1[8:1],{8}4,3,,2qq3[4:1]/6qq7[4:1],,2/6,
,,,2-4[8:1],1-5[8:1],2-6[8:1],1,2,
,7,7,7<4[8:1],,7/1p8[4:1],,1,
,,,8-4[8:1],7-5[8:1],8>5[4:1],7,8,
,,7,7h[4:1],,3h[4:1],,4h[4:1],
{16},,2,5,3,5,4,6,4,7,3,6,2,5,{8}1h[4:1],
,8,2,3-8[8:1],,3/4,,5b<8[8:1],
,,1,2,{4}3>8[8:1],{8}7,6,
{4}5<1[8:1],{8}1,2,{16}4,5,6,7,8<2[2:1],1,2,3,
{8}4bh[2:1],,,,,1>4[8:1],4<7[8:1],1,
{4}7,{8}2,2q3[4:1],,8,7,6<3[8:3],
,,{4}3<8[2:1],{16},,,,,,,,1x,
2,3,4,5,6,7,8,1/5x,4,3,2,1>7[2:1],8,7,6,
{8}5bxh[2:1],,,,,8-4[8:1],7-3[8:1],8,
{4}7,{8}2,2>6[4:1],,6<2[4:1],,2q5b[2:1]*p7b[2:1],
,,,,,,,1,
{4}1V35[8:1],{8}7,7-4[8:1],,2-6[8:1],,7,
,,{4}3>8[4:1],8<5[4:1],5V31[4:1],
1V75[4:1],5>1[4:1],{2}1<5[4:1],
{4}1h[2:1],,,2-6[2:1]/8-4[2:1],
{8},,,,,,,,7,
7-3[8:1],,7/2v5[8:1],,2/8-4[8:1],,8>3[8:1],
,8<5[8:1],,8-4[8:1],,8,,3,
2,2-6[8:1],,2/8-4[8:1],,8/1q5[8:1],,1/7<4[8:1],
,7/1q4[16:7]*p6[16:7],,1,,,,,2,
2-6[8:1],,2/7V53[8:1],,7/1-5[8:1],,1<6[8:1],
,1>4[8:1],,1w5[8:1],,1,,7,
8,8-5[8:1],,8/1-4[8:1],,1/7-3[8:1],,7/2>5[8:1],
,2/8qq5[8:3]*pp3[8:3],,8,,,,,5,
5h[4:5],,B4,,B6,,B3,
,B7,,B2,,1,2,3x,
E
&inote_6=
&inote_7=
