&title=Din Don Dan
&artist=Ryu☆ feat.森永真由美
&first=0.03
&des=熬鸽w
&lv_5=13+
&inote_5=(140){4},{16},,,,,,,,,,,,4/3h[8:3],
,,4,,,{8}2,,5h[8:1],4h[8:1],3h[8:1],
2,{16}8,1,,7,{8}8,{4}7/6s2[4:1],2s6[2:1],
{16}3,,,3,,,{8}3,,1h[8:1],7h[8:1],8h[8:1],
5,{16}6,5,,4,{8}5,{4}3/4s8[4:1],8z4[2:1],
{16}5,,,5,,,{8}5,,4,{4}4/3-6[8:1],
{8}6,7,{4}5/7-3[8:1],{8}1s5[4:1],1,{4}4,
{8}6h[8:1],5h[8:1],4h[8:1],3h[8:1],6h[16:1],5h[16:1],4h[16:1],3h[16:1],
{16}6,6,5,5,4,4,3,3,7,7,5,5,4,4,2,2,
{4}8bq3[8:3]*p5[8:3],{8},,,,4,4,
{2}3h[4:1]/4>1[8:1],{8}5>8[16:3],3/4h[8:1],,,7,
6/8,5/7pp2[16:5],6,{4}8,3b,
3/1-4[8:1],7,{8}3/1-4[8:1],4,{4}5,
{8}1v4[8:1]/7v4[8:1],4qq4[4:1]*pp4[4:1],,,,,8b,8b,
{2}7h[4:1]/8<5[8:1],{8}8<3[16:3],6/7h[8:1],,,2,
3/1,3/5p7[16:3],4,{4}5/7q5[16:3],6b,
6p2[8:1],8,{8}1/6p2[8:1],2,{4}3,
{16}7,5,6,6,1,4,3,3,1,5,7,7,{8}1b,4b/6b,
{4}8/1<6[8:1],2>5[8:1],{8}5/2<7[8:1],1,{4}3pp5[16:3],
5p7[16:3],6<4[4:1],5,8,
5/4<7[8:1],6h[2:1],{8}7,7,{4}5>2[8:1],
{8}1,8h[8:3],7,6,{4}5,{8}3/1-6[8:1],2,
{4}8/1-4[8:1],{8}8-5[8:1],8,2/8-3[8:1],1,{4}7V52[16:3],
2V84[16:3],3V16[16:3]*V58[16:3],,1,
4/2-6[8:1],1/2,{8}5-2[8:1]/8-4[8:1],5/8,{4}5/8,
{16}5,5,3,2,6,6,4,3,7,7,5,4,{4}1b-5[8:1],
8,8,8/6s2[8:3],8,
6,6,6pp5[16:5],1qq2[16:5],
,4h[8:3],3h[8:3],2h[4:3],
1,3,1pp6[2:1],8,
8,8,8/5<2[8:3],8,
6,6,6p5[16:5],3q4[16:5],
,5,{8}8<4[4:1],8,4>8[4:1],4,
{4}8pp5[8:3]*qq3[8:3],{8},,,,2b/8,8b/2,
{4}5/6>2[16:3],1p8[4:1],8p7[4:1],6,
{8}4,{16}5,4,,3,{8}4,{16}5/7-3[8:1],,,7,{4}8b,
1/6>2[16:3],3q1[16:3],1p7[4:1],4,
{16}5p6[16:3],,,7>4[16:3],,,,,,,,,{4}7V58[16:3],
4V63[16:3],1qq2[4:1],2qq3[4:1],4,
{8}4,{16}5,4,,3,{8}4,{16}2/1-5[8:1],,,1,{4}8bV62[16:3],
3V51[16:3],1qq1[16:3],{2}6pp3[16:5],
{8}4-8[8:1],4,1,1,{16}7,8,{8}6h[16:1],{16}3,5,{8}4h[16:1],
{16}6,6,5,7,1,1,4,3,1,1,5,7,{8}1b,2b/1b,
{4}5/4q1[8:1],2/4,{8}3q1[8:1],2/1<6[8:1],{4}2,
{8}3,4/2,6/1-5[8:1],8,{16}1/3-7[8:1],,,3,{4}4,
8/6>3[8:1],4,{8}6>1[16:3],8/7,{4}7,
{8}4v1[8:1]*v7[8:1],7qq8[4:1]/1pp8[4:1],{16},,,,,,,,7b,7b,{8}8b,
{4}2/1q5[8:1],7/1,{8}8q5[8:1],6/5>2[8:1],{4}6,
{8}7,6/4,2/5qq5[4:1],3,{4}5/6pp5[4:1],6b,
2v5[8:1],5>2[8:1],{8}6<1[8:1],1v6[8:1],{4}6,
{16}4,3,6,6,3,2,5,5,2,1,4,4,{8}8b,7b/8b,
{4}3/4>1[8:1],4/5<8[8:1],{8}1/5>2[8:1],3,{4}5/6pp7[16:3],
8pp1[16:3],2>8[4:1],4,1,
1/8-5[8:1],3/8-3[8:1],{8}6/8-5[8:1],7,{4}8/2V83[4:1],
3-7[8:1],4V63[4:1],6,{8}1b,1b,
{4}7/4-8[8:1],5/4V25[16:3],{8}4/2,1,{4}8V27[16:3],
7V16[16:3],5V72[16:3]*V36[16:3],,8/4-8[8:1],
4/2-5[8:1],2/1,{8}7-4[8:1]/5-1[8:1],8/6,{4}7/5,
{16}2,2,4,3,1,1,4,6,8,8,5,3,{32}7-3[16:1],8,1,2,3,4,5,6,
{1}1b,,,
E
