&title=NEO WINGS
&artist=SOUND HOLIC
&first=-0.23
&des_1=Locate66
&des_2=Locate66
&des_3=Locate66
&des_4=Locate66
&des_5=Locate66
&lv_5=14
&des_6=Locate66
&des_7=Locate66
&des=Locate66
&inote_5=(168)
{1},
{1}1b-3-7-5[8:10]/C8f,,8-6v5-3b[8:10],
{4},,,{16}4,4,5,5,
{16}3,4,3,5,4,5,2h[8:1],,6,5,6,4,5,4,7h[8:1],,
{16}2,4,3,5,4,5,2h[8:1],,7,5,6,4,5,4,7h[8:1],,
{16}2,5,3,4,2,5,1h[8:1],,7,4,6,5,7,4,8h[8:1],,
{16}2,1,,3,4,,6,5,,7,8,,1b,,,,
{16}6,5,6,4,5,4,7h[8:1],,3,4,3,5,4,5,2h[8:1],,
{16}7,5,6,4,5,4,7h[8:1],,2,4,3,5,4,5,2h[8:1],,
{16}7,4,6,5,7,4,8h[8:1],,2,5,3,4,2,5,1h[8:1],,
{16}7,8,,6,5,,3,4,,2,1,,8b<1[8:8],,,,
{8}1,,1,,8,,7,,
{8}6h[8:2],,5,4,3h[8:1]/5,6,7-1-3-5-8[8:8]/5,7,
{8}4,,4,,1,,2,,
{8}3h[8:2],,5,46,{16}3,5,4,5,{8}3,,
{8}2V86-1[8:3]/4,,4,,4,5,6,2,
{8}3h[8:2]/5,,7,46,2,35,8,5/7V15[16:5],
{8}4h[8:1],,3h[8:1],,2h[8:1],4h[8:1],1h[8:2],5h[8:7],
{16},,E8,B7,B6,,B4,E4,,,,,,,,,
{8}35,4,46,5,3/5h[8:1],,4,57,
{8}6,5,34,2/5<8[8:2],,,1,2qq5[8:3],
{8},,6,6,,4,35,26,
{8}1b/7b,2b-7b[8:1]/6b-3[8:1],4b/8b,2b/6b,{16},,,,{8}36,25,
{16}3,,45,,5/6h[8:1],,4,4,5,,3,,2h[8:1]/5,,4,4,
{16}3,,5-7[8:1]/4,,,,53,,2V48b[16:3],,,,25,,6b,,
{16}7,1,7,,2,4,2,,6,6,5,,47,,35,,
{16}2,4,3,,7,5,6,,4,5,3,,26,,17,,
{16}3,8,4,6,5,7,1h[8:1],,4,2,5,4,6,5,7h[8:2],,
{8},5,46,35,7-4[8:1]/8-4[8:1],16,A7/A8/D8f,,
{8}1b-3[16:1],4-8[8:1],1,4V61b[8:2],,48,7,6,
{8}5-7[16:1],1q5[8:1],5,1<7-4b[8:2],,14,3,2,
{16}15,,2,4,3,,6,5,7,,18,,2/4-1[8:1],,,,
{8}4-8-6b[8:2]/6,5,42,3b,,{16}5,6,4,,35,,
{16}2pp1[8:2],,5,,26,,7-4-6[8:2],,,,78,,,,1,,
{16}2V46[8:2],,4V68[8:2],,8,,8V24b[8:2],,,,5,,6,,7,,
{16}4,5,3,4,2,5,3,6,5,7,4,8,3,5,2,4,
{16}2,1,3,8,4,7,5,6,4,7,3,8,{24}2,1,2,1,,,
{8}8b-6[16:1],5-1[8:1],8,5V38b[8:2],,51,2,3,
{8}4-2[16:1],8p4[8:1],4,8>2-5b[8:2],,58,6,7,
{16}84,,3,4,2,,18,,7,5,6,,4/7>2[8:1],,,,
{8}7V51b[8:2],4,7,3b,,12,38,47,
{16}56,,5/4-7[8:1],,34,,2b-6b[8:1]/4b,,,,8b-5[8:1]*-3[8:1]/2b,,,,8b,,
{16},,35,,26,,1/7<4[8:1],,,,8,,1,,2,,
{8}3-8[8:1],2,6-3[8:1],7,2-5[8:1],1,6-1[8:1],7,
{8}4-8[8:1],3,5-2[8:1]*<8[8:1],6,5,,1,82,
{16}34,,45,,56,,71,,24,,45,,57,,18,,
{16}3,5,1,7,5,6,4,5,{32}3,2,1,8,7,6,5,4,{8}3/C1f,,
{8}38,12,1/2-6[8:1],38,12,8v3[8:1]*<5[8:1],,8b,
{8},34,2>4-8[8:1]/5,,25,6,{16}7-3[8:1],1,7,1,
{8},2,4,35,17,2-5[8:1]/4-8[8:1],,2b/4b,
{8},17,6/2h[8:2],,{32}D5,D4,D3,D2,D1,D8,D7,D6,
{8}D5,,
{8}16,78,7-3[8:1]/8,16,78,1>4[8:1]*v6[8:1],,1b,
{8},56,7<5-1[8:1]/4,,74,3,{16}2-6[8:1],8,2,8,
{8},7,5,46,28,5-1[8:1]/7-4[8:1],,5b/7b,
{8},28,3/7h[8:2],,{24}A6,E6,B5,B4,E4,A3f,
{8},,
{16}2,1,3,4,2,5,1,8,5,6,5,7,4,3,2,1,
{16}8h[8:2]/4h[8:2],,,,,,,,2h[8:1],,1,3h[16:3],,8,4,,
{16}5h[8:1],,2,6h[8:1],,1,7<4[8:1],,,,8,1,2,3,,,
{16}3,3,4,4,2,2,5,5,1>4[8:1],,,,4,5,6,7,
{16}8h[8:1],,3,3,5,,2h[8:1],,8,1,7,5,6,4,5,3,
{16}5,6,7,8,15,2,3,4,5-8[8:1]/1v4[8:1],,,,,,,,
{16}3,1,4,8,5,7,4,6,3,5,2,6,1,7,4,6,
{16}2,7,1,8,2,7,3,6,{24}4,5,4,5,4,5,4bV28-6<8>2>4[8:16],,,,,,
{8}5h[8:8],,,,,,,,
{8},,,,,,,,
{8}7h[8:8],,E6,E5,,,,,
{8}4h[8:8],,E7,E6,,,,,
{16}5,,4,,6h[8:6],,,E7,,,E6,,,E5,,,
{16}E4,,,,2h[8:6],,,E3,,,E2,,,E1,,,
{16}E8,,,,6h[8:6],,,4,,,5,,,4,,,
{16}3,,5,,2h[8:6],,,5,,,4,,,5,,,
{16}6,,4,,7h[16:9],,,4,,,5,,,3,,,
{16}5,,26,,2-5b[8:1]/6-1[8:1],,,,,,,,,,,,
{8}8b-6[16:1],5-1[8:1],8,5V38b[8:2],,51,2,3,
{8}4-2[16:1],8p4[8:1],4,8>2-5b[8:2],,85,6,7,
{16}84,,7,5,6,,3,4,2,,81,,7/5-8[8:1],,,,
{8}5-1-3b[8:2]/3,4,57,6b,,{16}4,3,5,,64,,
{16}7qq8[8:2],,4,,73,,2-5-3[8:2],,,,21,,,,8,,
{16}7<3[8:2],,5>1[8:2],,1,,1<5b[8:2],,,,4,,3,,2,,
{16}5,4,6,5,7,4,6,3,4,2,5,1,6,4,7,5,
{16}7,8,6,1,5,2,4,3,5,2,6,1,{24}7,8,7,8,,,
{8}1b-3[16:1],4-8[8:1],1,4V61b[8:2],,48,7,6,
{8}5-7[16:1],1q5[8:1],5,1<7-4b[8:2],,41,3,2,
{16}15,,6,5,7,,81,,2,4,3,,5/2<7[8:1],,,,
{8}2V48b[8:2],5,2,6b,,87,61,52,
{16}43,,4/5-2[8:1],,65,,7b-3b[8:1]/5b,,,,1bw5b[8:1]/7b,,,,1b,,
{16},,64,,73,,8/2>5[8:1],,,,1,,8,,7,,
{8}6-1[8:1],7,3-6[8:1],2,7-4[8:1],8,3-8[8:1],2,
{8}5-1[8:1],6,4-7[8:1]*>1[8:1],3,4,,8,17,
{16}65,,45,,43,,28,,75,,45,,24,,18,,
{16}3,5,1,7,4,6,2,8,
{32}1,2,3,4,5,6,7,8,1,2,3,4,5,6,7,8,
{8}1b<5[8:2],,5>1[8:2],,1V75[8:2],,5V31[8:2],5,
{8},7,8,,8-4[8:1]/7-4[8:1],61,8b/7b,,
{8}6>2b[8:2],,2<6b[8:2],,6V42b[8:2],,2V86b[8:2],2,
{8},5,4,,4-8[8:1]/3-8[8:1],25,A4/D4f/A3,,
{16}6,5,6,4,5,4,7h[8:1],,3,4,3,5,4,5,2h[8:1],,
{16}7,5,6,4,5,4,7h[8:1],,2,4,3,5,4,5,2h[8:1],,
{16}7,4,6,5,7,4,8h[8:1],,2,5,3,4,2,5,1h[8:1],,
{16}7,8,,6,5,,3,4,,2,1,,8b,,,,
{16}3,4,3,5,4,5,2h[8:1],,6,5,6,4,5,4,7h[8:1],,
{16}2,4,3,5,4,5,2h[8:1],,7,5,6,4,5,4,7h[8:1],,
{16}2,5,3,4,2,5,1h[8:1],,7,4,6,5,7,4,8h[8:1],,
{16}2,1,,3,4,,6,5,,7,8,,2,21,,7,78,,6,57,,3,2/4h[8:1],,1b,5b,3b,7b,
E
