&title=おちゃめ機能
&artist=ゴジマジP
&first=0
&des=L.R.C.
&lv_6=12+
&inote_6=(150){4},,,,
{16}5h[8:1],,4h[8:1],,5,,3,4,,4,3,,5h[8:1],,4,,
6h[8:1],,5h[8:1],,6,,4,5,,5,4,,6h[8:1],,5,,
7h[8:1],,5h[8:1],,6,,3,4,,4,3,,5h[8:1],,4,,
6/7,,,2/3,,,1b/8b,,,,
{8}2h[4:1],4,5h[4:1],3,4,6<1[8:1],{16}5,5,,,
{8}3h[4:1],2,8h[4:1],2,1,7<4[8:1],{16}8,8,,,
{8}2h[4:1],3,5h[4:1],3,4,6,{16}5h[4:1],6,,,
{8}7,5/6,2,3/4,8,5/6,1>5[4:1],,6,6h[8:1],,
7h[4:1],6,5>2[8:1],{16}6,6,,,
{8}7h[4:1],1,2h[4:1],8,1,3<6[8:1],{16}2,2,,,
{8}1h[4:1],7,6h[4:1],8,7,5,{16}6,5h[16:3],,,
{8}7-5[32:3],7,4-8[8:1],4,6-2[8:1],6,1<6[8:1],,,,,2b/7b,,
{16}8,,,5/6,,7,5,,5/6,,,,5/6,,4/5,,3/4,,,1,,4,3,,1b/2b,,,,
{8}2v5[8:1],,8-4[8:1],8,2v5[8:1],,7-4[8:1],7,3-8[8:1],3,6>3[8:1],6,2-5[8:1],,1/2,,
7-2[8:1],,3v6[8:1],3,7-1[8:1],,2-5[8:1],2,6<1[8:1],6,2-4[32:3],2,6-1[8:1],,5/6,,
3-8[8:1],,7-5[8:1],7,3v8[8:1],,6>4[32:3],6,2-7[8:1],2,5-3[32:3],5,1-5[8:1],,1/5,,
7<4[8:1],,1-5[8:1],1,7-4[8:1],,2-6[8:1],2,8<5[8:1],8,3v8[8:1],3,6>4[32:3],6,1/6b,,
{16}1/2,,3,4,2,,1/8,,7/8,,6,5,
7<4[8:1],,4,,3/7>2[8:1],,2,,3/7qq3[4:1],,4,,3/7,,,,1b,,,,
1/2,,3,4,1,,1/8,,7/8,,6,5,
8>3[8:1],,1,,6/8<5[8:1],,7,,2/8s4[4:1],,1,,6/8,,,,7,,,,
5/6,,7,8,6,,5/4,,3/4,,2,1,
3>8[8:1],,8,,7/3<6[8:1],,6,,7/3qq7[4:1],,8,,7/3,,,,5b,,,,
4/5,,3,4,2,,6,5,7,,3,4,1,,6,5,8<6[32:3],,1-5[8:1],,8pp6[4:1],,1,,8,,,,3b,,,,,,
5h[4:1],,4,,3h[4:1],,4,,6h[4:1],,5,,4h[4:1],,5,,7h[4:1],,6,,5h[4:1],,6,,7h[8:1],,,,
3,4,3h[2:1],,4,,5,,6,,7h[8:1],,4,,6,5,6,5,6h[8:1],,3,4,3,4,3h[8:1],,5b,,4b,,,,
5,6,5,6,4,5,4,5,3,4,3,4,3,4,,,1,2,1,2,8,1,8,1,7,8,7,8,7,,,,
1,6,2,5,3,4,2,2,5,5,3,3,6,6,4,4,,,2b/3b,,,4b/5b,,,1b/8b,,,,
2h[4:1]/5,,3,,5h[8:1],,4,,5,,4/6>3[8:1],,2,2,,,
1h[4:1],,4,,5h[8:1],,2,,3,,2>5[8:1]/4,,1,1,,,
7h[4:1],,6,,3h[8:1],,4,,5,,4/6<1[8:1],,5,5,,,
2,,2h[8:1],,1,,8,,5/7,,4V25[4:1]/6V85[4:1],,4/6,,,,,,,,,,
3h[4:1]/5,,4,,5>2[8:1],,6,6,,,
7h[4:1],,8,,3h[8:1],,2,,1,,2/8<5[8:1],,3,3,,,
2-6[8:1],,5,,7,,1-5[8:1],,5,,3,,8-4[8:1],8,,,5,,6,,3/7,,2/8,,2/8,,
1,,1<5[4:1],,,,5>1[4:1],,5,,,,7b,,,,,,8,2,8,,1/3,,2b,2b,2b,,
{8}8-4[8:1],3>1[32:3],8,3,5<7[32:3],8pp4[16:5],5,8,,,
7,,6,5/6,4/5
,3/4,2>4[32:3],5-1[8:1],2,5<7[32:3]*v8[8:1],,5b,,
{16}2,1,2,,{8}8,1/7h[4:1],,5,4,3/6,2,1>4[4:1],1,4<7[4:1],4,,
8qq4[8:5]*pp4[8:5],8,8b,,,,,,,,
{16}3,4,2,,1/8,,5/7,,2/4,,,,1/8,,1/8,,,,
3/6,,,,4/5,,,5/6,,7,5,,5/6,,,,5/6,,4/5,,3/4,,,4/5,,,1,,2b/7b,,,,
