&title=キリトリセン
&artist=40mP
&first=0.03
&des=Ylng
&lv_5=13
&inote_5=(165){1},
{8}3h[8:4],,4,,,5h[8:4],,4,,3h[8:4],,4,,5,,4,
{8}6h[8:4],,5,,,4h[8:4],,5,,6h[8:4],,5,,4,,5,
{8}3h[8:4],,4,,,5h[8:4],,4,,3h[8:4],,4,,4,5,4,
{8}6h[8:4],,5,,,4,3,4<7[8:1],,1-5[8:1],,8h[8:3],,6,4,2,1-5[32:3],,1b/6b,,
{8}7h[8:2],5,4,3h[8:3],,4,5h[8:3],,4,3,2,4,1h[4:1],,6h[4:1],,
{8}4h[8:2],5,6,5>2[8:1],,8-4[8:1],,1-6[8:1],,5,,3,2/4,,7b/8b,,
{8}2h[8:2],4,5,6h[8:2],,5-2[8:1],,8-4[8:1],,1h[8:2],,5,2-4[32:3],6,2,7-5[32:3],3,7,2,3/8-4[8:1],,2>5[8:1],,6-2[8:1],,4h[4:1],,,
{8}7-4[8:1]/3,,7/3h[8:3],,,4,5,4-2[32:3],,6-4[32:3],,1h[8:3],,4,5,6h[8:3]/2,,,4,7-5[32:3],,4-2[32:3],,8pp5[8:3],,4,4,,3-1[32:3],,3/7-3[8:1],,4-1[8:1],,4/6h[8:3],,,4,3,5-7[32:3],,3-5[32:3],,8h[8:3],,4,3,2h[8:3]/6,,,4,3-1[32:3],,6-4[32:3],,2q5[8:3],,5,5,,7-4[32:3],,7/3,,
{8}2-5[8:1],,2/6h[8:3],,,5,4,5-7[32:3],,3-5[32:3],,8h[8:3],,5,4,3h[8:3]/7,,,5,2-4[32:3],,5-7[32:3],5,1qq4[8:3],,6,6,,7-4[32:3],,7/2-6[8:1],,5-8[8:1],,5/3h[8:3],,,5,6,4-2[32:3],,6-4[32:3],,1h[8:3],,5,6,7h[8:3]/3,,,5,6-8[32:3],,3-5[32:3],,7p4[8:3],,4,4,,2-5[8:1],,2/6,,
{8}7h[8:3],,,4,3h[4:1],,5,6-4[32:3],,3,2,1,3/7-5[32:3],,,4,3,2h[8:2],,5,6h[8:2],4,5,7<4[8:1],,3,2,1,7/3,7/3,
{16}6,4,6,4,
{8}5-7[32:3],,2,2-4[32:3],,8h[4:1],,5-2[8:1],,7-4[8:1],,1>5[6:1],,4,6,8-4[8:1],,1-5[8:1]/8,,6-1[8:1]/1,,3<6[8:1]/6,,3b/7b,,1,8,2b-5[32:3]/7b-4[32:3],,7b/2b,,,
{8}3-1[32:3]/6-8[32:3],,3-5[32:3]/6,,7-3[8:1],,2,1-4[8:1],,6h[4:1],,5-2[32:3],,8-4[32:3],,8/1,2-8[32:3],,2/6-4[32:3],,2,3-1[32:3],,7-3[32:3],,2>5[8:1],,1<5[6:1],,4,2,8,1-5[8:1]/7-3[8:1],,1/7,,2-5[8:1],6,2,7h[4:1],,4h[4:1],,2V47[4:1],,7V51[4:1],,3h[8:3],,,,4,6,5-1[8:1]/7-4[8:1],,7>2[8:1],,5h[4:1],,4,,8b/1b,2b/7b,,
{8}6-8[32:3]/1-3[32:3],,6-4[32:3]/1,,2-6[8:1],,7,8-5[8:1],,3h[4:1],,4-7[32:3],,1-5[32:3],,1/8,7-1[32:3],,7/3-5[32:3],,7,6-8[32:3],,2-6[32:3],,7<4[8:1],,8V24[6:1],,5,7,1,8-4[8:1]/2-6[8:1],,8/2,,7-4[8:1],3,7,2h[4:1],,5h[4:1],,6<1[4:1],,1>4[4:1],,6h[8:3],,,,7,4,3>8[8:1]/5<8[8:1],,3-5[32:3]/5,,7-3[32:3],,4h[8:3],,2,8,6,
{8}2-5[8:1]/4-8[8:1],,2/4,,
{8}7h[4:1],5,4,6-4[8:1],,2-6[8:1],,5h[4:1],,3,
{16}2,4,2,,1-4[8:1],,,,
{8}1/6h[4:1],,5,7,4,5-7[32:3],,3-5[32:3],,8h[4:1]/3>4[4:1],,,6,,7<4[8:1]/3>8[8:1],,7/3,,2h[4:1],4,5,3-5[32:3],,6,6,7,4/6,5,4/3,2,
{8}1>3[32:3],8,1,7<5[32:3],8,7,2,3-7[8:1]/7,,3/1-5[8:1],,4-7[8:1]*-1[8:1]/1,,,,,
{8}2/6,,2h[8:3]/6,,,4,,3h[8:3]/5h[8:3],,,,4-2[32:3],,6,,7,3/8,,8h[8:3]/3,,,5,,4h[8:3]/6h[8:3],,,,5-7[32:3],,1,1-5[8:1],,8h[4:1],,4,,3/5,3-5[32:3]/5,,7h[4:1],,4>1[8:1],,6h[4:1],,2-6[8:1],,5h[8:2],,4h[8:2],,2,8,6>3[32:3],,6b/2b,,1/3,,8/6,,4b/5b,3b/6b,,
{8}4>1[8:1]/8<5[8:1],,4-8[8:1],,2-5[8:1],,7,6-2[8:1],,4h[4:1],,8<5[8:1],,3/8,,1,2-5[8:1]/6-1[8:1],,6V41[6:1],,8,7-3[8:1],,2-5[8:1],,6-2[8:1],,4h[8:3],,2,8,6,2-6[8:1]/4-8[8:1],,2/4,,7-4[32:3],3,7,1>4[8:1],,1-6[8:1]/7-3[8:1],,1>6[16:5]/7,,5<1[4:1],,8h[8:3],,,,3,7,5/4-7[8:1],,5-1[8:1]/4,,3-6[8:1],,7h[4:1],,4,2,8,
{8}1-5[8:1]/6,1,7,7,3,4,5,6,2-6[8:1],2,8,8,4,3,5,6,1/7,2,3,6,4/5,3,7,2,1/8-4[8:1],7,8/2-6[8:1],2,6,5,
{16}3,4,3,4,
{8}2>5[8:1],,,,6,5,7,4-2[32:3],,6-4[32:3],,1h[4:1],,3V58[4:1],,2h[8:3],,,,3,5,7<4[8:1]/4>1[8:1],,4-8[8:1],,2-5[8:1],,6h[4:1],,4b,2b,8b,
{8}1b-5[8:1]/7b-3[8:1],,1/7,,2h[4:1],5,6,4-2[32:3],,7-5[32:3],,1h[4:1],,4-7[32:3],,4,1-5[8:1],,1/6h[4:1],,3h[4:1],5,4,1>4[8:1],,6<1[8:1],,5h[4:1],,8,4,3,2>5[8:1]/6<1[8:1],,2/6,,7h[4:1],4,3,5-7[32:3],,2-4[32:3],,8h[4:1],,5-2[8:1],,5,8<6[32:3],1,8,2>4[32:3],1,2,8,7-3[8:1]/3,,7/4-1[32:3],,6>3[8:1]/4,,1/6,
{16}2,1,2,,6>7[4:9]/1-4[4:19],,,,
{4},,,,,,,,,,,,,,,,,,,,
{32}6,5-1[16:3],3,4-8[8:1],
