&title=prototype Eureka
&artist=sasakure.‌UK x ArmyTom
&first=0
&des=Tail_R x テイルスター
&lv_5=14
&inote_5=(150)
{1},
{2}1h[16:3]/2h[16:6],E5,
{2}3h[16:3]/4h[16:6],E5,
{2}2h[16:3]/1h[16:6],E5,
{2}4h[16:3]/3h[16:6],3h[12:1]/4h[4:1],
{2}8h[16:3]/7h[16:6],E5,
{2}6h[16:3]/5h[16:6],E5,
{2}7h[16:3]/8h[16:6],E5,
{1}4z8[2:1]/5s1[2:1],
{16}2/5,,3,4,3,,6,6,5,,3,3,4,,6,5,
{16}6h[8:1],,3,3,4,,7,5,6,,3,4,3,,6,5,
{16}7/4,,6,5,6,,3,3,4,,6,6,5,,3,4,
{16}3h[8:1],,6,6,5,,2,4,3xv5[8:1],,,,7xv1[8:1]/3,,,,
{16}7x/1x,,2,2,8,,7,5,6,,2,1,3,,7,5,
{16}6h[8:1],,3,4,3xh[8:1],,5x,4xh[8:1],,6x,5xh[8:1],,7h[8:1],,1,1,
{16}8x,2x,2hx[8:1],,4x,3hx[8:1],,5x,4x^1[8:1],,,,4qq5<1b[4:3],,,,
{1}A4f/D5/A5,
{16}3-5[32:3]/5,,2,1,3,,6,6,5,7h[8:1],,1,8h[8:1],,2,1,
{16}3,8,4,5,3h[8:1],,5,4,6h[8:1],,8,8,7,1,6,2,
{16}5h[8:1],,3,4,2h[8:1],,7,5,8,2h[8:1],,1,3,8,4,7,
{16}5,6,4,5,3,4,2,1,3x,6,5,6,2x,5,4,5,
{16}1v6[8:1],,7/8,,6,,5h[4:1],,7,8,1,2,5,6,7,8,
{16}1^4[8:1],,7/8,,6,,5h[4:1],,6,7,8,1,5,6,7,8,
{16}1q5[8:1],,7/8,,6,,7,,8-4[8:1]/4^1[8:1],,,,8b/4b,,,,
{16}1,5,1,5,2,6,2,6,3-6[8:1]/7-4[8:1],,2/8,,,,,,
{16}2-5[8:1],,5-3[32:3],,2,,6,,7-5[8:1],,5-1[8:1],,7,,4,,
{16}3-8[8:1],,8V25[4:1],,3,,5,,6x,,7,7,5xh[4:1],,E7,,
{8}8-5[8:1],5-7[32:3],8,4,3-5[8:1],5-2[32:3],3,6,
{16}7-4[8:1],,8-3[8:1],,7,,8,,6,6,4,4,5,5,3,3,
{8}4V61[4:1],4,3,2,2-6[8:1],6-4[32:3],2,7,
{16}8^5[8:1],,1/2,,4,3,2,1,6x^1[8:1],,4/5,,1,2,3,4,
{8}8x-4[8:1],4-7[8:1],8,3,2-6[8:1]*-5[8:1],,2b,,
{16}4/7,,4/7h[4:1],,1,2,3,4,6,6,5,7,3,4,2,5,
{16}3h[8:1],,4,4,2,5,2,5,3,1,2,8,1,7,8,6,
{16}1,5,1,5,3,4,3,4,2h[8:1],,8,8,1,7,2,6,
{16}3hx[8:1],,5,3hx[8:1]/5,,6,6x,3xh[8:1],,7,3hx[8:1]/7,,8h[8:1],,1,,
{16}2x,1x,2x,8,2x,7,3,5,2,2,8,8,4,4,6,6,
{16}3h[8:1],,6,5,7,4,7,4,6,8,7,1,8,2,1,3,
{16}8,4,8,4,6,5,6,5,7h[8:1],,1,1,8,2,7,3,
{16}6hx[8:1],,4,6hx[8:1]/4,,3,3x,6xh[8:1],,2,6hx[8:1]/2,,1h[8:1],,8,8,
{24}1,2,3,4,5,6,1,8,7,6,5,4,{32}8,1,2,3,4,5,6,7,8qq1>4qq5^8[2:3],1,2,3,4,5,6,7,
{1}8bx,
{4},,,
{2}3h[1:1],{32}A7,E7,B6,B5,,,,,,,,,,,,,
{2}1h[1:1],A2/B2/E3,
{2}4h[1:1],D6/A5/E6,
{16}7h[8:1],,5,6h[8:1],,4,5h[8:1],,3xs7[4:1],,,,,,,,
{2}6h[1:1],{32}A3,E4,B4,B5,,,,,,,,,,,,,
{2}5h[1:1],E4/B4/B3,
{2}3h[1:1],E1/A1/B1,
{2}2-5-3-8[2:1],6h[2:1],
{16}4x,,2,4,3,5,4h[8:1],,6,5,6,5h[16:5],,,,,
{16}8x,,2,4,3,5,4h[8:1],,7,5,7,5h[16:5],,,,,
{16}6x,,2,4,3,5,4h[8:1],,6,5,6,5h[16:5],,,,,
{16}7h[8:1],,4,6h[8:1],,3,5h[8:1],,2z6[4:1],,,,,,,,
{16}7x,,7,5,6,4,5h[8:1],,3,4,3,4h[16:5],,,,,
{16}3x,,7,5,6,4,5h[8:1],,2,4,2,4h[16:5],,,,,
{16}2x,,7,5,6,4,5h[8:1],,3,4,3,4h[16:5],,,,,
{16}1h[8:1],,7,3,6,4,5h[8:1],,4bxw8[8:1],,,,,,,,
{16}2-5[8:1]/6,,1,8,2,,6,6,4,5h[8:1],,3,4h[8:1],,2,3,
{16}1x,8,3,3,6-3[8:1],4,5,,6/4,,2,2,4,3,5,4,
{16}3/6,,7,7,8,,3,4,1,8h[8:1],,2,1h[8:1],,3,2,
{16}4,5,3,6,2q6[8:1],7,1,,2/6,,7,7,5,6,8,7,
{16}6-1[8:1]/1,,5,4,6,,2,2,8,1h[8:1],,7,8h[8:1],,6,7,
{16}5x,4,6,6,2^7[8:1],7,1,,2/5,,6,6,8,7,1,8,
{16}2/7,,6,6,5,,1,8,{24}2xp6[8:1]*^7[8:1],3x,4x,5x,,,{16}2bx,,,,
{16}6,5,7,4,6v1[8:1],3,7,,6/1,,2,2,8,1,4,3,
{16}2v5[8:1]/5,,1,1,2,,8,8,4-7[8:1],,7-3[8:1],7,4x,,6x,,
{16}5-1[8:1],,6,6,2x-5[8:1],,3,3,8x-4[8:1],,7,7,4x,,3x,,
{16}3^6[8:1]/5,,7,7,3,,8,8,5-1[8:1],,1-3[8:1],1,5x,,8x,,
{16}7v4[8:1],,3,3,7x,,2xh[8:1],,7,1,6,2,7,3,6,4,
{16}7v4[8:1],,8,8,7,,1,1,5-2[8:1],,2-6[8:1],2,5x,,3x,,
{16}4-8[8:1],,3,3,7x-4[8:1],,6,6,1x-5[8:1],,2,2,5x,,6x,,
{16}6^3[8:1]/4x,,2,2,6,,1,1,{24}5x-2[8:1]*-1[8:1],6x,7x,8x,,,{16}5xb,,,,
{16}8,3,8,4,8,5,8,6,{24}8x,1,2,3,4,5,{32}1V35V71pp5[4:7]/6,2,3,4,5,6,7,8,
{1}1b/Cf,
{1},
{4}3h[4:1],4,6h[4:1],5,
{4}3h[4:1],4-8-4[8:3],5-7b[8:1],,
{16}8x/3x,,2,4,3,5,4,6,5,7h[8:1],,2,4,,3,5,
{16}4,6,5,7,3,4,2h[8:1],,8,,7,7,8,6,8,6,
{16}1/5,,3,3,4,,7,7,{24}1x^6[8:1],2x,3x,4x,,,{16}1bx/2,,3,,
{24}4x,5,6,7/1,2,3,4/5,6,7,8/2,3,4,5bx-2[8:1]/1bxv6b[8:1],,,,,,5<4[4:3],,,,,,
{4}Cf,,,,
{8}1-5[8:1]/5,,6,,7-4[8:1]/4,,3,,
{16}2hx[8:1],,4,2hx[8:1]/4,,8,8x,2xh[8:1],,6,2hx[8:1]/6x,,4h[8:1],,1,,
{16}2x,1x,2x,8x,2x,7x,1,6,4,5,1,6,8,5,3,7,
{16}1h[8:1],,6,5,8,1,4,3,1,2,5,4,7,8,6,5,
{16}7,7,8,6,4,4,5,3,8h[8:1],,3,3,4,2,5,3,
{16}6hx[8:1],,4,6hx[8:1]/4,,8,8x,6xh[8:1],,2,6hx[8:1]/2x,,1h[8:1],,8,,
{16}7x,8x,7x,1x,7x,2x,6,3,5,2,6,4,{24}7x-2[8:1]/3x-6b[8:1],6/2,5x/1,4/8,,,
{1}3bx<2z6[4:15],
